<?xml version="1.0" standalone="no"?>
<!DOCTYPE svg PUBLIC "-//W3C//DTD SVG 1.1//EN" "http://www.w3.org/Graphics/SVG/1.1/DTD/svg11.dtd" >
<svg xmlns="http://www.w3.org/2000/svg">
<metadata>
This is a custom SVG webfont generated by Font Squirrel.
Copyright   :  1990 2002 Adobe Systems Incorporated All rights reserved
Designer    : Linotype Staff
Foundry URL : httpwwwadobecomtype
</metadata>
<defs>
<font id="HelveticaNeueLTStd77BdCn" horiz-adv-x="983" >
<font-face units-per-em="2048" ascent="1462" descent="-586" />
<missing-glyph horiz-adv-x="491" />
<glyph unicode=" "  horiz-adv-x="491" />
<glyph unicode="&#x09;" horiz-adv-x="491" />
<glyph unicode="&#xa0;" horiz-adv-x="491" />
<glyph unicode="!" horiz-adv-x="606" d="M162 0v270h282v-270h-282zM162 987v475h282v-475l-38 -579h-205z" />
<glyph unicode="&#x22;" horiz-adv-x="948" d="M147 805v657h254v-657h-254zM547 805v657h254v-657h-254z" />
<glyph unicode="#" d="M0 356v230h178l33 250h-150v229h177l45 356h196l-43 -356h199l45 356h199l-45 -356h149v-229h-176l-33 -250h150v-230h-176l-46 -356h-198l45 356h-201l-43 -356h-199l46 356h-152zM377 586h198l33 250h-200z" />
<glyph unicode="$" d="M18 391v43h283q0 -104 22.5 -165.5t96.5 -80.5v414l-103 37q-281 100 -280 393q0 184 99.5 291t283.5 127v141h131v-141q379 -31 379 -387v-29h-283q-4 168 -96 199v-387l162 -66q127 -53 189.5 -133t62.5 -237q0 -217 -102.5 -320.5t-311.5 -118.5v-178h-131v178 q-233 18 -317.5 127t-84.5 293zM319 1077q0 -113 101 -172v328q-101 -31 -101 -156zM551 188q119 27 119 164q0 135 -119 199v-363z" />
<glyph unicode="%" horiz-adv-x="1593" d="M55 1059q0 211 62.5 301t245 90t245 -90t62.5 -301t-62.5 -301t-245 -90t-245 90t-62.5 301zM272 1067q0 -135 16.5 -189.5t74 -54.5t74 54.5t16.5 189.5q0 123 -16.5 175t-74 52t-74 -52t-16.5 -175zM287 -63l831 1548h182l-831 -1548h-182zM924 362.5q0 210.5 62.5 301 t244.5 90.5t244.5 -90.5t62.5 -301t-62.5 -301t-244.5 -90.5t-244.5 90.5t-62.5 301zM1141 371q0 -135 16.5 -189.5t73.5 -54.5t73.5 54.5t16.5 189.5q0 123 -16.5 175t-73.5 52t-73.5 -52t-16.5 -175z" />
<glyph unicode="&#x26;" horiz-adv-x="1214" d="M25 393q0 240 294 422l-51 76q-59 86 -78.5 142.5t-19.5 121.5q0 141 103.5 224t269.5 83q180 0 272 -85t92 -220q0 -106 -61.5 -196.5t-192.5 -182.5l219 -297q51 106 52 221h254q0 -219 -150 -432l193 -270h-314l-82 113q-55 -66 -149 -104t-203 -38q-106 0 -188 29 t-130.5 72t-79 102t-40.5 111.5t-10 107.5zM307 393q0 -76 55.5 -134t149.5 -58q117 0 190 92l-245 348q-150 -117 -150 -248zM412 1163q0 -61 73 -159l35 -50l53 45q92 76 93 160q0 59 -36 91t-93 32q-53 0 -89 -32t-36 -87z" />
<glyph unicode="'" horiz-adv-x="532" d="M139 805v657h254v-657h-254z" />
<glyph unicode="(" horiz-adv-x="606" d="M102 543q0 463 287 919h217q-127 -229 -180 -443t-53 -476t53 -476t180 -444h-217q-287 457 -287 920z" />
<glyph unicode=")" horiz-adv-x="606" d="M0 -377q127 229 180 443.5t53 476.5t-53 476t-180 443h217q287 -457 287 -919.5t-287 -919.5h-217z" />
<glyph unicode="*" horiz-adv-x="798" d="M14 1122l52 160l249 -82v262h168v-262l250 82l51 -160l-249 -82l155 -213l-137 -98l-154 213l-153 -213l-137 98l155 213z" />
<glyph unicode="+" horiz-adv-x="1228" d="M96 391v254h391v391h254v-391h392v-254h-392v-391h-254v391h-391z" />
<glyph unicode="," horiz-adv-x="491" d="M111 0v319h270v-266q0 -180 -58.5 -278.5t-211.5 -112.5v143q51 8 78.5 54.5t27.5 107.5v33h-106z" />
<glyph unicode="-" horiz-adv-x="757" d="M90 471v242h578v-242h-578z" />
<glyph unicode="." horiz-adv-x="491" d="M111 0v319h270v-319h-270z" />
<glyph unicode="/" horiz-adv-x="679" d="M-6 -29l463 1520h229l-463 -1520h-229z" />
<glyph unicode="0" d="M37 676q0 102 2 170.5t12 157t28.5 146.5t51.5 119.5t81 97.5t118.5 59.5t161.5 23.5q258 0 356 -156.5t98 -548.5q0 -88 -2 -149t-8 -140t-19.5 -133.5t-35 -115t-56 -99t-81 -72.5t-110 -49.5t-142.5 -15.5q-258 0 -356.5 157t-98.5 548zM332 612q0 -272 31.5 -360 t128 -88t128 101.5t31.5 385.5v158q0 272 -31.5 360t-128 88t-128 -101t-31.5 -386v-158z" />
<glyph unicode="1" d="M84 1024v193h27q299 0 340 233h217v-1450h-295v1024h-289z" />
<glyph unicode="2" d="M37 0q0 188 76.5 334.5t242.5 300.5l119 110q94 86 123 152t29 180q0 180 -144 180q-100 0 -130.5 -71.5t-33.5 -210.5h-282v55q0 420 450 420q215 0 325 -102.5t110 -292.5q0 -141 -50.5 -244.5t-175.5 -216.5l-164 -152q-123 -111 -149 -213h547v-229h-893z" />
<glyph unicode="3" d="M41 418v6h283q4 -137 36.5 -198.5t124.5 -61.5q98 0 130 60.5t32 172.5q0 115 -40 181.5t-150 66.5h-99v193h97q86 0 127 65.5t41 163.5q0 100 -34 145t-108 45q-88 0 -118.5 -59t-30.5 -176h-271q0 211 110 319.5t316 108.5q418 0 418 -373q0 -129 -58.5 -213 t-162.5 -106v-4q258 -39 258 -342q0 -82 -20.5 -153t-68.5 -139.5t-148.5 -108.5t-243.5 -40q-207 0 -313.5 118t-106.5 329z" />
<glyph unicode="4" d="M29 301v242l481 907h305v-920h139v-229h-139v-301h-270v301h-516zM258 530h287v551h-4z" />
<glyph unicode="5" d="M37 375v39h282q0 -238 144 -238q172 0 172 283q0 180 -35 243.5t-135 63.5q-123 0 -139 -133h-265l54 788h755v-229h-534l-31 -330h4q80 109 266 109q100 0 172 -39t110 -107.5t55.5 -146.5t17.5 -170q0 -262 -101.5 -399.5t-363.5 -137.5q-131 0 -221 39t-132 104.5 t-58.5 127t-16.5 133.5z" />
<glyph unicode="6" d="M29 649q0 86 1 136.5t5 128t13 125.5t26.5 111.5t41 101.5t60.5 80t85 64.5t112.5 38t142.5 15.5q82 0 150.5 -18.5t127 -59.5t91.5 -114.5t35 -176.5h-283q0 176 -133 176q-57 0 -94 -26.5t-55.5 -79.5t-24.5 -113.5t-6 -148.5v-72h4q82 125 272 125q184 0 269 -122 t85 -331q0 -518 -469 -518q-117 0 -202.5 38t-134 97.5t-76 152.5t-35.5 182t-8 208zM338 451q2 -143 35 -215t127 -72q98 0 128.5 71.5t30.5 215.5q0 147 -36.5 210.5t-122.5 63.5q-88 0 -125 -63.5t-37 -210.5z" />
<glyph unicode="7" d="M45 1167v254h893v-225q-172 -244 -280.5 -558t-145.5 -638h-309q86 672 452 1167h-610z" />
<glyph unicode="8" d="M29 410q0 141 63.5 237t181.5 121v4q-106 29 -157 109t-51 170q0 399 426 399t426 -399q0 -90 -51.5 -170t-157.5 -109v-4q119 -25 182 -121t63 -237q0 -57 -9 -109.5t-38.5 -115t-78 -107.5t-135.5 -76t-201.5 -31t-201.5 31t-135.5 76t-78 107.5t-38.5 115t-9 109.5z M324 414q0 -250 167.5 -250t167.5 250t-167.5 250t-167.5 -250zM348 1059q0 -98 39 -150.5t104.5 -52.5t104.5 52.5t39 150.5q0 199 -143.5 199t-143.5 -199z" />
<glyph unicode="9" d="M29 932q0 518 469 518q117 0 202.5 -38t134 -97.5t76 -152.5t35.5 -182t8 -208q0 -86 -1 -137t-5 -129t-13 -125t-26.5 -110.5t-41 -101.5t-60.5 -80t-85 -64.5t-112.5 -38t-142.5 -15.5q-113 0 -198 32t-144 117t-62 218h283q0 -174 133 -174q57 0 94 26.5t55.5 80 t24.5 113.5t6 148v70h-4q-82 -123 -272 -123q-184 0 -269 122t-85 331zM324 971q0 -147 36.5 -211t122.5 -64q88 0 125 63.5t37 211.5q-2 143 -34.5 214.5t-127.5 71.5q-98 0 -128.5 -71.5t-30.5 -214.5z" />
<glyph unicode=":" horiz-adv-x="491" d="M111 0v319h270v-319h-270zM111 748v319h270v-319h-270z" />
<glyph unicode=";" horiz-adv-x="491" d="M111 0v319h270v-266q0 -180 -58.5 -278.5t-211.5 -112.5v143q51 8 78.5 54.5t27.5 107.5v33h-106zM111 748v319h270v-319h-270z" />
<glyph unicode="&#x3c;" horiz-adv-x="1228" d="M96 410v217l1037 426v-254l-693 -281l693 -280v-254z" />
<glyph unicode="=" horiz-adv-x="1228" d="M96 168v254h1037v-254h-1037zM96 614v254h1037v-254h-1037z" />
<glyph unicode="&#x3e;" horiz-adv-x="1228" d="M96 -16v254l692 280l-692 281v254l1037 -426v-217z" />
<glyph unicode="?" horiz-adv-x="985" d="M74 1010v47q0 190 104.5 306t300.5 116q211 0 321.5 -105.5t110.5 -290.5q0 -174 -129 -319l-82 -92q-57 -63 -78.5 -111.5t-21.5 -124.5v-30h-254v79q0 100 28.5 171t98.5 151l78 88q78 86 78 217q0 80 -36 127t-104 47q-145 0 -145 -225v-51h-270zM332 0v270h282v-270 h-282z" />
<glyph unicode="@" horiz-adv-x="1638" d="M59 731.5q0 315.5 222.5 537.5t538 222t537.5 -173t222 -448q0 -123 -41 -226t-101.5 -167.5t-133 -109.5t-134 -63.5t-104.5 -18.5q-123 0 -133 108h-4q-100 -109 -246 -108q-117 0 -208 96t-91 252q0 199 123 351.5t315 152.5q164 0 248 -138l27 109h180l-119 -512 q-12 -55 -12 -84q0 -41 41 -41q70 0 141.5 103.5t71.5 252.5q0 201 -163 336t-382 135q-236 0 -400.5 -172t-164.5 -397q0 -231 172 -398t407 -167q229 0 445 131h182q-227 -324 -676 -324q-315 0 -537.5 222.5t-222.5 538zM612 668q0 -70 41 -118t105 -48q100 0 168.5 83 t68.5 179q0 63 -45 109.5t-108 46.5q-94 0 -162 -81t-68 -171z" />
<glyph unicode="A" horiz-adv-x="1138" d="M0 0l387 1462h365l387 -1462h-308l-67 309h-389l-68 -309h-307zM426 551h287l-142 657h-4z" />
<glyph unicode="B" horiz-adv-x="1138" d="M102 0v1462h494q416 0 416 -370q0 -121 -57.5 -205t-163.5 -115v-4q123 -16 194.5 -106.5t71.5 -233.5q0 -190 -107.5 -309t-349.5 -119h-498zM397 217h115q115 0 176.5 50t61.5 171q0 219 -226 219h-127v-440zM397 862h84q123 0 179.5 45t56.5 147.5t-51.5 146.5 t-161.5 44h-107v-383z" />
<glyph unicode="C" horiz-adv-x="1099" d="M72 731.5q0 149.5 9 251.5t39 205.5t83 165t145 99.5t221 38q121 0 209 -36t133 -85t72 -127t33 -137t6 -137h-295q0 164 -39 234.5t-137 70.5q-109 0 -146.5 -122t-37.5 -441q0 -217 21.5 -333t60 -153t106.5 -37q59 0 96 26t62.5 110t25.5 235h295q0 -129 -19.5 -226 t-67.5 -183.5t-143 -132.5t-235 -46q-129 0 -221 38t-145 99.5t-83 165t-39 206t-9 252z" />
<glyph unicode="D" horiz-adv-x="1175" d="M117 0v1462h483q121 0 208 -33.5t139 -91t83 -150.5t42 -194.5t11 -240.5q0 -403 -108.5 -577.5t-392.5 -174.5h-465zM412 217h131q150 0 197.5 109.5t47.5 416.5q0 274 -47 388t-204 114h-125v-1028z" />
<glyph unicode="E" horiz-adv-x="985" d="M102 0v1462h818v-241h-523v-344h492v-242h-492v-393h543v-242h-838z" />
<glyph unicode="F" horiz-adv-x="948" d="M102 0v1462h818v-241h-523v-344h492v-242h-492v-635h-295z" />
<glyph unicode="G" horiz-adv-x="1138" d="M88 748q0 385 109.5 564t382.5 179q238 0 346 -117t108 -346h-282q0 94 -43 170t-125 76q-106 0 -153.5 -119t-47.5 -393q0 -293 42 -433.5t161 -140.5q61 0 121.5 62.5t60.5 171.5v149h-195v217h478v-788h-217v135h-5q-100 -164 -307 -164q-133 0 -220 48.5t-133 152.5 t-63.5 238.5t-17.5 337.5z" />
<glyph unicode="H" horiz-adv-x="1138" d="M102 0v1462h295v-559h344v559h295v-1462h-295v649h-344v-649h-295z" />
<glyph unicode="I" horiz-adv-x="528" d="M117 0v1462h295v-1462h-295z" />
<glyph unicode="J" horiz-adv-x="948" d="M31 399v64h270v-45q0 -123 27.5 -176.5t103.5 -53.5t103.5 53.5t27.5 176.5v1044h295v-1052q0 -231 -106.5 -335t-333.5 -104q-215 0 -301 115.5t-86 312.5z" />
<glyph unicode="K" horiz-adv-x="1099" d="M102 0v1462h295v-585h4l373 585h320l-398 -626l443 -836h-332l-301 600l-109 -166v-434h-295z" />
<glyph unicode="L" horiz-adv-x="948" d="M102 0v1462h295v-1220h523v-242h-818z" />
<glyph unicode="M" horiz-adv-x="1515" d="M109 0v1462h438l209 -1032h4l211 1032h436v-1462h-270v1167h-4l-261 -1167h-229l-260 1167h-4v-1167h-270z" />
<glyph unicode="N" horiz-adv-x="1175" d="M102 0v1462h340l357 -1001h4v1001h270v-1462h-336l-360 1024h-4v-1024h-271z" />
<glyph unicode="O" horiz-adv-x="1138" d="M72 731.5q0 149.5 9 251.5t39 205.5t83 165t145 99.5t221 38t221.5 -38t145.5 -99.5t83 -165t39 -205.5t9 -251.5t-9 -252t-39 -206t-83 -165t-145.5 -99.5t-221.5 -38t-221 38t-145 99.5t-83 165t-39 206t-9 252zM367 731q0 -311 38.5 -427t163.5 -116t164 116t39 427 q0 309 -39 426t-164 117t-163.5 -117t-38.5 -426z" />
<glyph unicode="P" horiz-adv-x="1062" d="M102 0v1462h516q141 0 235.5 -65.5t130.5 -159.5t36 -213q0 -221 -124 -330.5t-341 -109.5h-158v-584h-295zM397 801h131q90 0 143.5 55t53.5 164q0 225 -205 225h-123v-444z" />
<glyph unicode="Q" horiz-adv-x="1138" d="M72 731.5q0 149.5 9 251.5t39 205.5t83 165t145 99.5t221 38t221.5 -38t145.5 -99.5t83 -165t39 -205.5t9 -252q0 -213 -22.5 -355.5t-90.5 -238.5l158 -160l-174 -157l-174 180q-43 -16 -90 -23q-47 -6 -105 -6q-129 0 -221 38t-145 99.5t-83 165t-39 206t-9 252z M367 731q0 -311 38.5 -427t163.5 -116t164 116t39 427q0 309 -39 426t-164 117t-163.5 -117t-38.5 -426z" />
<glyph unicode="R" horiz-adv-x="1138" d="M102 0v1462h545q184 0 286.5 -96t102.5 -281q0 -309 -243 -360v-4q145 -18 188 -110.5t47 -336.5q2 -127 14.5 -184t51.5 -78v-12h-320q-33 47 -37 154l-8 280q-6 184 -174 184h-158v-618h-295zM397 823h123q221 0 221 219q0 203 -204 203h-140v-422z" />
<glyph unicode="S" horiz-adv-x="1062" d="M45 397v60h295v-43q0 -113 42 -169.5t153 -56.5q74 0 125 47.5t51 133.5q0 96 -55.5 146t-206.5 103q-205 70 -294 168.5t-89 274.5q0 209 119.5 319.5t332.5 110.5q209 0 331 -96.5t122 -296.5v-41h-283q0 217 -160 217q-168 0 -168 -170q0 -72 31 -116t121 -83l227 -98 q160 -70 219.5 -158t59.5 -229q0 -449 -508 -449q-244 0 -354.5 108.5t-110.5 317.5z" />
<glyph unicode="T" d="M25 1221v241h933v-241h-319v-1221h-295v1221h-319z" />
<glyph unicode="U" horiz-adv-x="1101" d="M84 442v1020h295v-1020q0 -121 38 -187.5t134 -66.5t134 67t38 187v1020h295v-1020q0 -135 -38 -230t-106.5 -145.5t-147.5 -73t-175 -22.5q-98 0 -175 19.5t-146.5 69t-107.5 145.5t-38 237z" />
<glyph unicode="V" horiz-adv-x="1062" d="M6 1462h316l206 -1081h7l217 1081h305l-336 -1462h-379z" />
<glyph unicode="W" horiz-adv-x="1556" d="M16 1462h283l162 -1081h4l172 1081h283l172 -1081h4l161 1081h283l-266 -1462h-330l-164 1061h-4l-164 -1061h-329z" />
<glyph unicode="X" horiz-adv-x="1099" d="M12 0l365 739l-336 723h326l188 -473l186 473h322l-340 -723l364 -739h-331l-211 496l-209 -496h-324z" />
<glyph unicode="Y" horiz-adv-x="1064" d="M6 1462h332l192 -565h5l204 565h320l-379 -887v-575h-295v575z" />
<glyph unicode="Z" horiz-adv-x="985" d="M49 0v215l539 1006h-502v241h842v-223l-547 -997h555v-242h-887z" />
<glyph unicode="[" horiz-adv-x="645" d="M164 -377v1839h469v-205h-215v-1429h215v-205h-469z" />
<glyph unicode="\" horiz-adv-x="679" d="M-6 1491h229l463 -1520h-229z" />
<glyph unicode="]" horiz-adv-x="645" d="M12 -172h215v1429h-215v205h469v-1839h-469v205z" />
<glyph unicode="^" horiz-adv-x="1228" d="M115 633l385 788h229l385 -788h-254l-246 506l-245 -506h-254z" />
<glyph unicode="_" horiz-adv-x="1024" d="M0 -154h1024v-102h-1024v102z" />
<glyph unicode="`" horiz-adv-x="454" d="M-33 1526h283l110 -295h-192z" />
<glyph unicode="a" horiz-adv-x="985" d="M57 287q0 152 64.5 227.5t214.5 116.5l160 43q63 16 87.5 45t24.5 84q0 135 -131 135q-63 0 -97 -39t-34 -104v-31h-254v27q0 178 106.5 258.5t280.5 80.5q233 0 316.5 -84.5t83.5 -252.5v-580q0 -135 34 -213h-270q-16 31 -35 115h-4q-47 -82 -110.5 -113t-169.5 -31 q-135 0 -201 94.5t-66 221.5zM328 317q0 -68 26.5 -110.5t79.5 -42.5q66 0 120 43t54 127v217q-53 -39 -121 -55q-84 -18 -121.5 -61.5t-37.5 -117.5z" />
<glyph unicode="b" horiz-adv-x="1024" d="M94 0v1462h283v-463h4q88 131 237 131q174 0 256 -137t82 -442t-81.5 -442.5t-256.5 -137.5q-162 0 -249 146h-4v-117h-271zM377 550.5q0 -192.5 30.5 -277.5t118.5 -85t118 85t30 277.5t-30 277.5t-118 85t-118.5 -85t-30.5 -277.5z" />
<glyph unicode="c" horiz-adv-x="948" d="M53 551q0 319 117 449t330 130q193 0 294 -113.5t101 -311.5h-270q0 221 -127 221q-98 0 -130 -85t-32 -292q0 -215 29.5 -300t121.5 -85q137 0 138 258h270q0 -223 -100.5 -337t-319.5 -114t-320.5 129t-101.5 451z" />
<glyph unicode="d" horiz-adv-x="1024" d="M68 551q0 305 81.5 442t256.5 137q150 0 237 -131h4v463h283v-1462h-271v117h-4q-88 -145 -249 -146q-174 0 -256 137.5t-82 442.5zM350 550.5q0 -192.5 30 -277.5t118 -85t118.5 85t30.5 277.5t-30.5 277.5t-118.5 85t-118 -85t-30 -277.5z" />
<glyph unicode="e" horiz-adv-x="948" d="M53 561q0 98 8.5 174t36 154t74.5 128t128 81.5t192 31.5q231 0 317 -140t86 -419v-63h-559v-88q0 -109 33.5 -182.5t105.5 -73.5q68 0 102.5 50t47.5 157h254q-16 -399 -400 -400q-86 0 -152.5 19.5t-110.5 48.5t-75.5 79t-48 95t-26 112.5t-11.5 115.5t-2 120zM336 676 h289q-4 139 -33 200.5t-111 61.5q-78 0 -111.5 -64.5t-33.5 -154.5v-43z" />
<glyph unicode="f" horiz-adv-x="606" d="M12 909v193h144v125q0 143 74.5 203.5t220.5 60.5q74 0 151 -6v-201q-18 2 -55 2q-59 0 -84 -20.5t-25 -67.5v-96h164v-193h-164v-909h-282v909h-144z" />
<glyph unicode="g" horiz-adv-x="1024" d="M72 569q0 113 12 199t45 175t106.5 138t182.5 49q158 0 227 -151h4v123h271v-1047q0 -221 -107.5 -326.5t-351.5 -105.5q-180 0 -277.5 77t-97.5 218h270q0 -53 43 -84q45 -31 95 -31q156 0 155 199v145h-4q-94 -135 -235 -135q-172 0 -255 130t-83 427zM354 516 q0 -287 142 -287q154 0 153 316q0 205 -31.5 286.5t-115.5 81.5q-90 0 -119 -83t-29 -314z" />
<glyph unicode="h" horiz-adv-x="1024" d="M94 0v1462h283v-473h4q80 141 268 141q281 0 281 -313v-817h-283v760q0 82 -28.5 117.5t-92.5 35.5q-150 0 -149 -182v-731h-283z" />
<glyph unicode="i" horiz-adv-x="491" d="M104 0v1102h283v-1102h-283zM104 1237v242h283v-242h-283z" />
<glyph unicode="j" horiz-adv-x="491" d="M-51 -152q14 -4 45 -4q70 0 90 38t20 138v1082h283v-1178q0 -145 -70.5 -214.5t-253.5 -69.5q-33 0 -114 4v204zM104 1237v242h283v-242h-283z" />
<glyph unicode="k" horiz-adv-x="1024" d="M104 0v1462h283v-772h4l285 412h311l-317 -434l364 -668h-311l-236 453l-100 -131v-322h-283z" />
<glyph unicode="l" horiz-adv-x="491" d="M104 0v1462h283v-1462h-283z" />
<glyph unicode="m" horiz-adv-x="1552" d="M94 0v1102h271v-113h4q100 141 278 141q96 0 164 -46t90 -130h4q66 176 279 176q274 0 274 -329v-801h-282v770q0 143 -111 143q-70 0 -108.5 -48t-38.5 -140v-725h-283v770q0 143 -111 143q-70 0 -108.5 -48t-38.5 -140v-725h-283z" />
<glyph unicode="n" horiz-adv-x="1024" d="M94 0v1102h271v-129h4q86 158 280 157q281 0 281 -313v-817h-283v760q0 82 -28.5 117.5t-92.5 35.5q-150 0 -149 -182v-731h-283z" />
<glyph unicode="o" d="M57 551q0 293 99.5 436t335.5 143q7 0 13 1q233 0 325 -137q95 -140 96 -443q0 -293 -99.5 -436.5t-334.5 -143.5h-14q-233 0 -325 137q-96 140 -96 443zM340 551q0 -98 4 -157.5t18.5 -118t46 -85t83.5 -26.5q84 0 117.5 89t33.5 298t-34 298t-117 89q-51 0 -83 -26.5 t-46.5 -85t-18.5 -118t-4 -157.5z" />
<glyph unicode="p" horiz-adv-x="1024" d="M94 -360v1462h271v-117h4q88 145 249 145q174 0 256 -137t82 -442t-81.5 -442.5t-256.5 -137.5q-150 0 -237 131h-4v-462h-283zM377 550.5q0 -192.5 30.5 -277.5t118.5 -85t118 85t30 277.5t-30 277.5t-118 85t-118.5 -85t-30.5 -277.5z" />
<glyph unicode="q" horiz-adv-x="1024" d="M68 551q0 305 81.5 442t256.5 137q162 0 249 -145h4v117h271v-1462h-283v462h-4q-88 -131 -237 -131q-174 0 -256 137.5t-82 442.5zM350 550.5q0 -192.5 30 -277.5t118 -85t118.5 85t30.5 277.5t-30.5 277.5t-118.5 85t-118 -85t-30 -277.5z" />
<glyph unicode="r" horiz-adv-x="681" d="M94 0v1102h271v-148h4q94 176 254 176q18 0 51 -4v-270q-57 4 -88 4q-86 0 -147.5 -48t-61.5 -150v-662h-283z" />
<glyph unicode="s" horiz-adv-x="909" d="M47 322v38h254v-36q0 -74 38 -117t110 -43q66 0 104.5 33.5t38.5 97.5q0 86 -103 125l-198 72q-236 84 -236 307q0 147 99.5 239t306.5 92q377 0 377 -313v-45h-254q0 86 -29 126t-96 40q-57 0 -95 -32t-38 -87q0 -88 123 -129l169 -57q133 -45 188.5 -118t55.5 -198 q0 -168 -112.5 -257t-296.5 -89q-225 0 -315.5 89.5t-90.5 261.5z" />
<glyph unicode="t" horiz-adv-x="606" d="M12 909v193h144v315h282v-315h164v-193h-164v-596q0 -68 20.5 -94t80.5 -26q27 0 63 4v-197q-123 -12 -184 -12q-162 0 -212 59t-50 232v630h-144z" />
<glyph unicode="u" horiz-adv-x="1024" d="M94 285v817h283v-760q0 -82 28.5 -118t92.5 -36q150 0 149 183v731h283v-1102h-271v129h-4q-86 -158 -280 -158q-281 1 -281 314z" />
<glyph unicode="v" horiz-adv-x="909" d="M10 1102h295l158 -789h4l149 789h283l-276 -1102h-328z" />
<glyph unicode="w" horiz-adv-x="1441" d="M14 1102h283l129 -783h4l137 783h307l146 -783h4l133 783h270l-237 -1102h-322l-145 782h-4l-137 -782h-328z" />
<glyph unicode="x" horiz-adv-x="946" d="M14 0l299 567l-286 535h295l151 -332l152 332h295l-287 -535l299 -567h-295l-164 360l-164 -360h-295z" />
<glyph unicode="y" horiz-adv-x="909" d="M10 1102h295l164 -762h4l143 762h283l-266 -1028q-39 -150 -71 -230t-81 -129t-108.5 -62t-163.5 -13h-115v210q37 -6 74 -6q139 0 151 156z" />
<glyph unicode="z" horiz-adv-x="872" d="M49 0v217l440 655h-419v230h753v-217l-440 -656h440v-229h-774z" />
<glyph unicode="{" horiz-adv-x="645" d="M61 459v168q53 0 94.5 48t41.5 118v395q0 131 54 202.5t159 71.5h182v-205h-62q-80 0 -79 -147v-340q0 -90 -41 -151.5t-107 -73.5v-4q66 -12 107 -73.5t41 -152.5v-340q0 -147 79 -147h62v-205h-182q-104 0 -158.5 72t-54.5 203v395q0 70 -41.5 118t-94.5 48z" />
<glyph unicode="|" horiz-adv-x="454" d="M100 -29v1520h254v-1520h-254z" />
<glyph unicode="}" horiz-adv-x="645" d="M53 -172h62q80 0 80 147v340q0 90 40.5 151.5t106.5 74.5v4q-66 12 -106.5 73.5t-40.5 151.5v340q0 147 -80 147h-62v205h183q104 0 158.5 -71.5t54.5 -202.5v-395q0 -70 40.5 -118t94.5 -48v-168q-53 0 -94 -48.5t-41 -117.5v-395q0 -131 -54.5 -203t-158.5 -72h-183 v205z" />
<glyph unicode="~" horiz-adv-x="1228" d="M141 539q94 176 252 176q109 0 223 -60q152 -80 213 -80q55 0 109.5 47.5t75.5 92.5l73 -217q-94 -176 -251 -176q-106 0 -242 69q-137 70 -195 70q-55 0 -109 -47t-75 -92z" />
<glyph unicode="&#xa1;" horiz-adv-x="606" d="M162 115l39 579h205l38 -579v-475h-282v475zM162 831v271h282v-271h-282z" />
<glyph unicode="&#xa2;" d="M68 543q0 100 9 178t33.5 153.5t66.5 128t112.5 87t165.5 40.5v156h106v-156q74 -6 131.5 -24.5t110.5 -62.5t82.5 -128t29.5 -202h-270q0 182 -84 213v-750q84 49 84 252h270q0 -207 -85 -321.5t-269 -135.5v-180h-106v180q-88 4 -153.5 31t-121 87.5t-84 175 t-28.5 278.5zM350 555q0 -111 3 -170t28 -127t74 -82v750q-63 -23 -84 -110t-21 -261z" />
<glyph unicode="&#xa3;" d="M10 164q109 70 174.5 165t65.5 197q0 45 -23 101h-209v168h138q-92 178 -93 290q0 162 113 263.5t326 101.5q438 0 446 -424h-270q0 231 -160 231q-90 0 -131 -46t-41 -115q0 -78 53 -185l58 -116h342v-168h-289q10 -25 10 -80q0 -90 -41 -163t-143 -157l8 -4 q49 14 92 15q27 0 112 -31t122 -31q82 0 213 86l90 -192q-152 -98 -305 -99q-45 0 -176.5 37t-196.5 37q-86 0 -201 -57z" />
<glyph unicode="&#xa4;" d="M0 346l102 103q-80 121 -79 262q0 143 79 262l-102 102l125 127l104 -102q119 80 262.5 80t262.5 -80l104 102l125 -127l-102 -102q80 -119 80 -262.5t-80 -261.5l102 -103l-125 -127l-104 105q-119 -82 -262 -82q-145 0 -263 82l-104 -105zM240 711q0 -123 68.5 -194 t183 -71t183 71t68.5 194t-68.5 193.5t-183 70.5t-183 -70.5t-68.5 -193.5z" />
<glyph unicode="&#xa5;" d="M-35 1421h305l219 -551h5l229 551h295l-297 -624h188v-168h-268l-23 -47v-88h291v-168h-291v-326h-253v326h-291v168h291v88l-23 47h-268v168h188z" />
<glyph unicode="&#xa6;" horiz-adv-x="454" d="M100 -29v555h254v-555h-254zM100 936v555h254v-555h-254z" />
<glyph unicode="&#xa7;" horiz-adv-x="985" d="M27 627q0 94 49 172t135 121q-123 92 -123 233q0 174 115.5 256t304.5 82q199 0 294 -89t95 -243h-270q0 63 -29 101q-31 39 -113 38q-57 0 -92 -32.5t-35 -83.5q0 -80 131 -142l244 -114q225 -106 225 -334q0 -80 -45 -165t-114 -126q111 -88 110 -254 q0 -180 -108.5 -269t-308.5 -89q-205 0 -309.5 94t-104.5 262v31h270v-31q0 -76 40 -120t104 -44q68 0 101.5 40t33.5 97q0 109 -131 172l-252 121q-217 107 -217 316zM268 668q0 -72 70 -111l203 -111q49 -29 80 -51q96 80 96 154q0 53 -31 90t-108 78l-197 104 q-113 -67 -113 -153z" />
<glyph unicode="&#xa8;" horiz-adv-x="454" d="M-63 1249v242h229v-242h-229zM289 1249v242h229v-242h-229z" />
<glyph unicode="&#xa9;" horiz-adv-x="1638" d="M59 731.5q0 315.5 222.5 537.5t538 222t537.5 -222t222 -537.5t-222 -538t-537.5 -222.5t-538 222.5t-222.5 538zM289 731q0 -225 152.5 -384t377.5 -159t378 159t153 384t-153 384t-378 159t-377.5 -159t-152.5 -384zM426 737q0 195 112.5 321t305.5 126 q143 0 245.5 -83t120.5 -231h-196q-35 137 -180 138q-102 0 -159 -75t-57 -196q0 -115 58.5 -192.5t154.5 -77.5q74 0 123.5 39t59.5 104h205q-23 -147 -127.5 -233t-241.5 -86q-190 0 -307 128t-117 318z" />
<glyph unicode="&#xaa;" horiz-adv-x="643" d="M20 940q0 94 42 141t141 68l119 25q74 16 73 69q0 76 -76 76q-41 0 -62 -22.5t-21 -57.5v-18h-193v26q0 203 281 203q164 0 220 -51t56 -152v-352q0 -80 23 -129h-205q-6 10 -23 72q-33 -51 -74.5 -68.5t-117.5 -17.5q-94 0 -138.5 55t-44.5 133zM225 969q0 -86 66 -86 q39 0 71.5 24.5t32.5 71.5v121q-31 -23 -71 -31q-99 -20 -99 -100z" />
<glyph unicode="&#xab;" horiz-adv-x="872" d="M106 426v332l306 246v-271l-162 -141l162 -141v-271zM461 426v332l305 246v-271l-162 -141l162 -141v-271z" />
<glyph unicode="&#xac;" horiz-adv-x="1228" d="M96 614v254h1037v-667h-254v413h-783z" />
<glyph unicode="&#xad;" horiz-adv-x="757" d="M90 471v242h578v-242h-578z" />
<glyph unicode="&#xae;" horiz-adv-x="1638" d="M59 731.5q0 315.5 222.5 537.5t538 222t537.5 -222t222 -537.5t-222 -538t-537.5 -222.5t-538 222.5t-222.5 538zM289 731q0 -225 152.5 -384t377.5 -159t378 159t153 384t-153 384t-378 159t-377.5 -159t-152.5 -384zM522 322v819h320q315 0 315 -254 q0 -98 -57.5 -156.5t-145.5 -71.5l203 -337h-196l-193 329h-66v-329h-180zM702 795h138q68 0 102.5 20.5t34.5 81.5q0 100 -156 100h-119v-202z" />
<glyph unicode="&#xaf;" horiz-adv-x="454" d="M-74 1307v155h602v-155h-602z" />
<glyph unicode="&#xb0;" horiz-adv-x="819" d="M106 1147q0 127 88.5 215t215.5 88t215 -88t88 -215t-88 -215t-215 -88t-215.5 88t-88.5 215zM262 1146.5q0 -61.5 43 -104.5t104.5 -43t104.5 43t43 104.5t-43 104.5t-104.5 43t-104.5 -43t-43 -104.5z" />
<glyph unicode="&#xb1;" horiz-adv-x="1228" d="M96 0v254h1037v-254h-1037zM96 561v254h391v221h254v-221h392v-254h-392v-221h-254v221h-391z" />
<glyph unicode="&#xb2;" horiz-adv-x="638" d="M0 573q0 238 207 385l102 74q100 74 101 166q0 41 -25 68.5t-63 27.5q-100 0 -105 -149h-217v51q0 254 328 254q158 0 234.5 -58.5t76.5 -162.5q0 -88 -28.5 -147.5t-106.5 -118.5l-117 -91q-94 -72 -108 -131h360v-168h-639z" />
<glyph unicode="&#xb3;" horiz-adv-x="638" d="M0 831v21h217q4 -137 100 -137q92 0 93 108q0 129 -123 129h-58v144h58q55 0 82.5 31.5t27.5 76.5q0 39 -23.5 64.5t-60.5 25.5q-94 0 -94 -123h-205q0 139 74 211q70 68 223 68q303 0 303 -223q0 -80 -37.5 -130t-105.5 -65v-4q168 -29 168 -205q0 -264 -346 -264 q-293 0 -293 272z" />
<glyph unicode="&#xb4;" horiz-adv-x="454" d="M94 1231l111 295h282l-200 -295h-193z" />
<glyph unicode="&#xb5;" horiz-adv-x="1024" d="M94 -360v1462h283v-760q0 -82 28.5 -118t92.5 -36q150 0 149 183v731h283v-1102h-271v129h-4q-43 -78 -102 -118t-115 -40q-37 0 -61 17v-348h-283z" />
<glyph unicode="&#xb6;" d="M2 1067q0 221 103.5 308t302.5 87h548v-1745h-217v1553h-149v-1553h-217v969q-180 0 -275.5 98.5t-95.5 282.5z" />
<glyph unicode="&#xb7;" horiz-adv-x="491" d="M47 577.5q0 81.5 58.5 140t140.5 58.5t140 -58.5t58 -140t-58 -140t-140 -58.5t-140.5 58.5t-58.5 140z" />
<glyph unicode="&#xb8;" horiz-adv-x="454" d="M0 -420l39 94q53 -31 141 -30q43 0 73 20.5t30 48.5q0 31 -25 50.5t-65 19.5q-37 0 -70 -12l-45 41l112 188h111l-78 -125q41 10 68 10q66 0 119 -42t53 -109q0 -90 -67.5 -141.5t-190.5 -51.5q-135 0 -205 39z" />
<glyph unicode="&#xb9;" horiz-adv-x="638" d="M49 1167v144h17q197 0 223 139h176v-877h-229v594h-187z" />
<glyph unicode="&#xba;" horiz-adv-x="643" d="M25 1100q0 180 66.5 265t230.5 85q170 2 233 -82t63 -268q0 -178 -66.5 -263t-229.5 -85q-170 -2 -233.5 81t-63.5 267zM229 1100q0 -111 17.5 -164t75.5 -53q51 0 71.5 50t20.5 167t-20.5 168t-71.5 51q-57 0 -75 -53t-18 -166z" />
<glyph unicode="&#xbb;" horiz-adv-x="872" d="M106 180v271l162 141l-162 141v271l306 -246v-332zM461 180v271l162 141l-162 141v271l305 -246v-332z" />
<glyph unicode="&#xbc;" horiz-adv-x="1476" d="M0 1167v144h16q197 0 224 139h176v-877h-230v594h-186zM197 -63l831 1548h182l-831 -1548h-182zM821 158v186l312 533h253v-551h91v-168h-91v-158h-217v158h-348zM989 326h180v297h-4z" />
<glyph unicode="&#xbd;" horiz-adv-x="1476" d="M0 1167v144h16q197 0 224 139h176v-877h-230v594h-186zM147 -63l832 1548h182l-831 -1548h-183zM838 0q0 238 206 385l103 74q100 74 100 166q0 41 -24.5 68.5t-63.5 27.5q-100 0 -104 -150h-217v52q0 254 327 254q158 0 235 -58.5t77 -163.5q0 -88 -29 -147t-107 -119 l-116 -90q-94 -72 -109 -131h361v-168h-639z" />
<glyph unicode="&#xbe;" horiz-adv-x="1476" d="M0 831v21h217q4 -137 100 -137q92 0 93 108q0 129 -123 129h-58v144h58q55 0 82.5 31.5t27.5 76.5q0 39 -23.5 64.5t-60.5 25.5q-94 0 -94 -123h-205q0 139 74 211q70 68 223 68q303 0 303 -223q0 -80 -37.5 -130t-105.5 -65v-4q168 -29 168 -205q0 -264 -346 -264 q-293 0 -293 272zM276 -63l832 1548h182l-831 -1548h-183zM821 158v186l312 533h253v-551h91v-168h-91v-158h-217v158h-348zM989 326h180v297h-4z" />
<glyph unicode="&#xbf;" horiz-adv-x="985" d="M74 18q0 174 129 320l82 92q57 63 78.5 111.5t21.5 124.5v30h254v-80q0 -100 -28.5 -170.5t-98.5 -150.5l-78 -88q-78 -86 -78 -217q0 -80 36 -127t104 -47q145 0 145 225v51h270v-47q0 -190 -104.5 -306t-300.5 -116q-211 0 -321.5 105.5t-110.5 289.5zM371 831v271h282 v-271h-282z" />
<glyph unicode="&#xc0;" horiz-adv-x="1138" d="M0 0l387 1462h365l387 -1462h-308l-67 309h-389l-68 -309h-307zM309 1843h283l110 -295h-192zM426 551h287l-142 657h-4z" />
<glyph unicode="&#xc1;" horiz-adv-x="1138" d="M0 0l387 1462h365l387 -1462h-308l-67 309h-389l-68 -309h-307zM426 551h287l-142 657h-4zM436 1548l111 295h282l-200 -295h-193z" />
<glyph unicode="&#xc2;" horiz-adv-x="1138" d="M0 0l387 1462h365l387 -1462h-308l-67 309h-389l-68 -309h-307zM262 1548l160 295h295l160 -295h-218l-94 174l-98 -174h-205zM426 551h287l-142 657h-4z" />
<glyph unicode="&#xc3;" horiz-adv-x="1138" d="M0 0l387 1462h365l387 -1462h-308l-67 309h-389l-68 -309h-307zM248 1567q35 254 190 254q53 0 88 -15l99 -43q31 -12 61 -12q27 0 42 24.5t15 49.5h148q-10 -113 -62.5 -183.5t-128.5 -70.5q-47 0 -130 34.5t-113 34.5q-51 0 -66 -73h-143zM426 551h287l-142 657h-4z " />
<glyph unicode="&#xc4;" horiz-adv-x="1138" d="M0 0l387 1462h365l387 -1462h-308l-67 309h-389l-68 -309h-307zM279 1567v241h229v-241h-229zM426 551h287l-142 657h-4zM631 1567v241h229v-241h-229z" />
<glyph unicode="&#xc5;" horiz-adv-x="1138" d="M0 0l387 1462h365l387 -1462h-308l-67 309h-389l-68 -309h-307zM336 1734.5q0 96.5 68.5 165t165 68.5t165 -68.5t68.5 -165t-68.5 -165t-165 -68.5t-165 68.5t-68.5 165zM426 551h287l-142 657h-4zM451 1735q0 -49 34.5 -84t83.5 -35t84 35t35 84t-35 83.5t-84 34.5 t-83.5 -34.5t-34.5 -83.5z" />
<glyph unicode="&#xc6;" horiz-adv-x="1554" d="M-10 0l551 1462h948v-241h-481v-344h450v-242h-450v-393h501v-242h-784v309h-326l-102 -309h-307zM479 551h246v682h-18z" />
<glyph unicode="&#xc7;" horiz-adv-x="1099" d="M72 731q0 150 9 252t39 205.5t83 165t145 99.5t221 38q121 0 209 -36t133 -85t72 -127t33 -137t6 -137h-295q0 164 -39 234.5t-137 70.5q-109 0 -146.5 -122t-37.5 -441q0 -217 21.5 -333t60 -153t106.5 -37q59 0 96 26t62.5 110t25.5 235h295q0 -121 -16.5 -213 t-57 -176t-119.5 -134t-196 -63l-61 -98q41 10 67 10q66 0 119 -42t53 -109q0 -90 -67.5 -141.5t-190.5 -51.5q-135 0 -205 39l39 94q53 -31 142 -30q43 0 72.5 20.5t29.5 48.5q0 31 -24.5 50.5t-65.5 19.5q-37 0 -70 -12l-45 41l97 159q-100 4 -177 32t-126.5 79t-82 112.5 t-49 152.5t-22.5 178t-6 206z" />
<glyph unicode="&#xc8;" horiz-adv-x="985" d="M102 0v1462h818v-241h-523v-344h492v-242h-492v-393h543v-242h-838zM258 1843h283l110 -295h-192z" />
<glyph unicode="&#xc9;" horiz-adv-x="985" d="M102 0v1462h818v-241h-523v-344h492v-242h-492v-393h543v-242h-838zM385 1548l111 295h282l-200 -295h-193z" />
<glyph unicode="&#xca;" horiz-adv-x="985" d="M102 0v1462h818v-241h-523v-344h492v-242h-492v-393h543v-242h-838zM211 1548l160 295h295l159 -295h-217l-94 174l-98 -174h-205z" />
<glyph unicode="&#xcb;" horiz-adv-x="985" d="M102 0v1462h818v-241h-523v-344h492v-242h-492v-393h543v-242h-838zM227 1567v241h230v-241h-230zM580 1567v241h229v-241h-229z" />
<glyph unicode="&#xcc;" horiz-adv-x="528" d="M4 1843h283l110 -295h-192zM117 0v1462h295v-1462h-295z" />
<glyph unicode="&#xcd;" horiz-adv-x="528" d="M117 0v1462h295v-1462h-295zM131 1548l111 295h282l-200 -295h-193z" />
<glyph unicode="&#xce;" horiz-adv-x="528" d="M-43 1548l160 295h295l159 -295h-217l-94 174l-98 -174h-205zM117 0v1462h295v-1462h-295z" />
<glyph unicode="&#xcf;" horiz-adv-x="528" d="M-27 1567v241h230v-241h-230zM117 0v1462h295v-1462h-295zM326 1567v241h229v-241h-229z" />
<glyph unicode="&#xd0;" horiz-adv-x="1175" d="M0 645v217h117v600h483q121 0 208 -33.5t139 -91t83 -150.5t42 -194.5t11 -240.5q0 -403 -108.5 -577.5t-392.5 -174.5h-465v645h-117zM412 217h131q150 0 197.5 109.5t47.5 416.5q0 274 -47 388t-204 114h-125v-383h190v-217h-190v-428z" />
<glyph unicode="&#xd1;" horiz-adv-x="1175" d="M102 0v1462h340l357 -1001h4v1001h270v-1462h-336l-360 1024h-4v-1024h-271zM266 1567q35 254 191 254q53 0 88 -15l98 -43q31 -12 62 -12q27 0 42 24.5t15 49.5h147q-10 -113 -62 -183.5t-128 -70.5q-47 0 -130 34.5t-114 34.5q-51 0 -65 -73h-144z" />
<glyph unicode="&#xd2;" horiz-adv-x="1138" d="M72 731.5q0 149.5 9 251.5t39 205.5t83 165t145 99.5t221 38t221.5 -38t145.5 -99.5t83 -165t39 -205.5t9 -251.5t-9 -252t-39 -206t-83 -165t-145.5 -99.5t-221.5 -38t-221 38t-145 99.5t-83 165t-39 206t-9 252zM309 1843h283l110 -295h-192zM367 731q0 -311 38.5 -427 t163.5 -116t164 116t39 427q0 309 -39 426t-164 117t-163.5 -117t-38.5 -426z" />
<glyph unicode="&#xd3;" horiz-adv-x="1138" d="M72 731.5q0 149.5 9 251.5t39 205.5t83 165t145 99.5t221 38t221.5 -38t145.5 -99.5t83 -165t39 -205.5t9 -251.5t-9 -252t-39 -206t-83 -165t-145.5 -99.5t-221.5 -38t-221 38t-145 99.5t-83 165t-39 206t-9 252zM367 731q0 -311 38.5 -427t163.5 -116t164 116t39 427 q0 309 -39 426t-164 117t-163.5 -117t-38.5 -426zM436 1548l111 295h282l-200 -295h-193z" />
<glyph unicode="&#xd4;" horiz-adv-x="1138" d="M72 731.5q0 149.5 9 251.5t39 205.5t83 165t145 99.5t221 38t221.5 -38t145.5 -99.5t83 -165t39 -205.5t9 -251.5t-9 -252t-39 -206t-83 -165t-145.5 -99.5t-221.5 -38t-221 38t-145 99.5t-83 165t-39 206t-9 252zM262 1548l160 295h295l160 -295h-218l-94 174l-98 -174 h-205zM367 731q0 -311 38.5 -427t163.5 -116t164 116t39 427q0 309 -39 426t-164 117t-163.5 -117t-38.5 -426z" />
<glyph unicode="&#xd5;" horiz-adv-x="1138" d="M72 731.5q0 149.5 9 251.5t39 205.5t83 165t145 99.5t221 38t221.5 -38t145.5 -99.5t83 -165t39 -205.5t9 -251.5t-9 -252t-39 -206t-83 -165t-145.5 -99.5t-221.5 -38t-221 38t-145 99.5t-83 165t-39 206t-9 252zM248 1567q35 254 190 254q53 0 88 -15l99 -43 q31 -12 61 -12q27 0 42 24.5t15 49.5h148q-10 -113 -62.5 -183.5t-128.5 -70.5q-47 0 -130 34.5t-113 34.5q-51 0 -66 -73h-143zM367 731q0 -311 38.5 -427t163.5 -116t164 116t39 427q0 309 -39 426t-164 117t-163.5 -117t-38.5 -426z" />
<glyph unicode="&#xd6;" horiz-adv-x="1138" d="M72 731.5q0 149.5 9 251.5t39 205.5t83 165t145 99.5t221 38t221.5 -38t145.5 -99.5t83 -165t39 -205.5t9 -251.5t-9 -252t-39 -206t-83 -165t-145.5 -99.5t-221.5 -38t-221 38t-145 99.5t-83 165t-39 206t-9 252zM279 1567v241h229v-241h-229zM367 731q0 -311 38.5 -427 t163.5 -116t164 116t39 427q0 309 -39 426t-164 117t-163.5 -117t-38.5 -426zM631 1567v241h229v-241h-229z" />
<glyph unicode="&#xd7;" horiz-adv-x="1228" d="M121 201l319 317l-319 318l176 176l317 -320l318 320l176 -176l-320 -318l320 -317l-176 -176l-318 319l-317 -319z" />
<glyph unicode="&#xd8;" horiz-adv-x="1138" d="M72 731q0 150 9 252t39 205.5t83 165t145 99.5t221 38q150 0 248 -49l53 125l99 -43l-62 -144q94 -88 127 -244.5t33 -404.5q0 -150 -9 -252t-39 -205.5t-83 -165t-145.5 -99.5t-221.5 -38q-152 0 -247 49l-54 -124l-98 43l61 143q-94 88 -126.5 244.5t-32.5 404.5z M367 731q0 -213 12 -303h4l330 772q-45 74 -144 74q-125 0 -163.5 -117t-38.5 -426zM426 264q41 -76 143 -76q125 0 164 116t39 427q0 209 -12 303h-4z" />
<glyph unicode="&#xd9;" horiz-adv-x="1101" d="M84 442v1020h295v-1020q0 -121 38 -187.5t134 -66.5t134 67t38 187v1020h295v-1020q0 -135 -38 -230t-106.5 -145.5t-147.5 -73t-175 -22.5q-98 0 -175 19.5t-146.5 69t-107.5 145.5t-38 237zM291 1843h282l111 -295h-192z" />
<glyph unicode="&#xda;" horiz-adv-x="1101" d="M84 442v1020h295v-1020q0 -121 38 -187.5t134 -66.5t134 67t38 187v1020h295v-1020q0 -135 -38 -230t-106.5 -145.5t-147.5 -73t-175 -22.5q-98 0 -175 19.5t-146.5 69t-107.5 145.5t-38 237zM418 1548l110 295h283l-201 -295h-192z" />
<glyph unicode="&#xdb;" horiz-adv-x="1101" d="M84 442v1020h295v-1020q0 -121 38 -187.5t134 -66.5t134 67t38 187v1020h295v-1020q0 -135 -38 -230t-106.5 -145.5t-147.5 -73t-175 -22.5q-98 0 -175 19.5t-146.5 69t-107.5 145.5t-38 237zM244 1548l159 295h295l160 -295h-217l-94 174l-98 -174h-205z" />
<glyph unicode="&#xdc;" horiz-adv-x="1101" d="M84 442v1020h295v-1020q0 -121 38 -187.5t134 -66.5t134 67t38 187v1020h295v-1020q0 -135 -38 -230t-106.5 -145.5t-147.5 -73t-175 -22.5q-98 0 -175 19.5t-146.5 69t-107.5 145.5t-38 237zM260 1567v241h229v-241h-229zM612 1567v241h230v-241h-230z" />
<glyph unicode="&#xdd;" horiz-adv-x="1064" d="M6 1462h332l192 -565h5l204 565h320l-379 -887v-575h-295v575zM399 1548l111 295h283l-201 -295h-193z" />
<glyph unicode="&#xde;" horiz-adv-x="1062" d="M102 0v1462h295v-262h221q141 0 235.5 -65.5t130.5 -159.5t36 -213q0 -221 -124 -330.5t-341 -109.5h-158v-322h-295zM397 539h131q90 0 143.5 55t53.5 164q0 225 -205 225h-123v-444z" />
<glyph unicode="&#xdf;" horiz-adv-x="1024" d="M84 0v1079q0 213 106.5 312.5t327.5 99.5q195 0 299.5 -90t104.5 -260q0 -119 -39 -187.5t-144 -113.5v-4q227 -37 228 -394q0 -455 -367 -454q-94 0 -135 8v192q25 -8 43 -8q104 0 140 73t36 226q0 248 -164 248h-51v193h35q135 0 135 194q0 184 -135 184 q-78 0 -107.5 -57t-29.5 -168v-1073h-283z" />
<glyph unicode="&#xe0;" horiz-adv-x="985" d="M57 287q0 152 64.5 227.5t214.5 116.5l160 43q63 16 87.5 45t24.5 84q0 135 -131 135q-63 0 -97 -39t-34 -104v-31h-254v27q0 178 106.5 258.5t280.5 80.5q233 0 316.5 -84.5t83.5 -252.5v-580q0 -135 34 -213h-270q-16 31 -35 115h-4q-47 -82 -110.5 -113t-169.5 -31 q-135 0 -201 94.5t-66 221.5zM233 1526h283l111 -295h-193zM328 317q0 -68 26.5 -110.5t79.5 -42.5q66 0 120 43t54 127v217q-53 -39 -121 -55q-84 -18 -121.5 -61.5t-37.5 -117.5z" />
<glyph unicode="&#xe1;" horiz-adv-x="985" d="M57 287q0 152 64.5 227.5t214.5 116.5l160 43q63 16 87.5 45t24.5 84q0 135 -131 135q-63 0 -97 -39t-34 -104v-31h-254v27q0 178 106.5 258.5t280.5 80.5q233 0 316.5 -84.5t83.5 -252.5v-580q0 -135 34 -213h-270q-16 31 -35 115h-4q-47 -82 -110.5 -113t-169.5 -31 q-135 0 -201 94.5t-66 221.5zM328 317q0 -68 26.5 -110.5t79.5 -42.5q66 0 120 43t54 127v217q-53 -39 -121 -55q-84 -18 -121.5 -61.5t-37.5 -117.5zM360 1231l111 295h283l-201 -295h-193z" />
<glyph unicode="&#xe2;" horiz-adv-x="985" d="M57 287q0 152 64.5 227.5t214.5 116.5l160 43q63 16 87.5 45t24.5 84q0 135 -131 135q-63 0 -97 -39t-34 -104v-31h-254v27q0 178 106.5 258.5t280.5 80.5q233 0 316.5 -84.5t83.5 -252.5v-580q0 -135 34 -213h-270q-16 31 -35 115h-4q-47 -82 -110.5 -113t-169.5 -31 q-135 0 -201 94.5t-66 221.5zM186 1231l160 295h295l160 -295h-217l-95 174l-98 -174h-205zM328 317q0 -68 26.5 -110.5t79.5 -42.5q66 0 120 43t54 127v217q-53 -39 -121 -55q-84 -18 -121.5 -61.5t-37.5 -117.5z" />
<glyph unicode="&#xe3;" horiz-adv-x="985" d="M57 287q0 152 64.5 227.5t214.5 116.5l160 43q63 16 87.5 45t24.5 84q0 135 -131 135q-63 0 -97 -39t-34 -104v-31h-254v27q0 178 106.5 258.5t280.5 80.5q233 0 316.5 -84.5t83.5 -252.5v-580q0 -135 34 -213h-270q-16 31 -35 115h-4q-47 -82 -110.5 -113t-169.5 -31 q-135 0 -201 94.5t-66 221.5zM172 1249q35 254 190 254q53 0 89 -14l98 -43q31 -12 61 -12q27 0 42.5 24.5t15.5 48.5h147q-10 -113 -62.5 -183.5t-127.5 -70.5q-47 0 -130 35t-114 35q-51 0 -66 -74h-143zM328 317q0 -68 26.5 -110.5t79.5 -42.5q66 0 120 43t54 127v217 q-53 -39 -121 -55q-84 -18 -121.5 -61.5t-37.5 -117.5z" />
<glyph unicode="&#xe4;" horiz-adv-x="985" d="M57 287q0 152 64.5 227.5t214.5 116.5l160 43q63 16 87.5 45t24.5 84q0 135 -131 135q-63 0 -97 -39t-34 -104v-31h-254v27q0 178 106.5 258.5t280.5 80.5q233 0 316.5 -84.5t83.5 -252.5v-580q0 -135 34 -213h-270q-16 31 -35 115h-4q-47 -82 -110.5 -113t-169.5 -31 q-135 0 -201 94.5t-66 221.5zM203 1249v242h229v-242h-229zM328 317q0 -68 26.5 -110.5t79.5 -42.5q66 0 120 43t54 127v217q-53 -39 -121 -55q-84 -18 -121.5 -61.5t-37.5 -117.5zM555 1249v242h229v-242h-229z" />
<glyph unicode="&#xe5;" horiz-adv-x="985" d="M57 287q0 152 64.5 227.5t214.5 116.5l160 43q63 16 87.5 45t24.5 84q0 135 -131 135q-63 0 -97 -39t-34 -104v-31h-254v27q0 178 106.5 258.5t280.5 80.5q233 0 316.5 -84.5t83.5 -252.5v-580q0 -135 34 -213h-270q-16 31 -35 115h-4q-47 -82 -110.5 -113t-169.5 -31 q-135 0 -201 94.5t-66 221.5zM260 1429.5q0 96.5 68.5 165t165 68.5t165 -68.5t68.5 -165t-68.5 -165t-165 -68.5t-165 68.5t-68.5 165zM328 317q0 -68 26.5 -110.5t79.5 -42.5q66 0 120 43t54 127v217q-53 -39 -121 -55q-84 -18 -121.5 -61.5t-37.5 -117.5zM375 1429.5 q0 -49.5 34.5 -84t84 -34.5t84 34.5t34.5 84t-34.5 84t-84 34.5t-84 -34.5t-34.5 -84z" />
<glyph unicode="&#xe6;" horiz-adv-x="1478" d="M55 287q0 152 64.5 227.5t214.5 116.5l160 43q63 16 87.5 45t24.5 84q0 135 -131 135q-63 0 -97 -39t-34 -104v-31h-254v27q0 178 106.5 258.5t280.5 80.5q113 0 177.5 -28.5t107.5 -102.5q31 61 100.5 96t159.5 35q121 0 201 -37.5t123 -115.5t60 -174t17 -232v-63h-555 v-88q0 -109 33 -182.5t105 -73.5q68 0 101.5 50t45.5 157h254q-16 -399 -397 -400q-254 0 -332 191q-63 -117 -139 -154t-217 -37q-135 0 -201 94.5t-66 221.5zM326 317q0 -68 26.5 -110.5t79.5 -42.5q66 0 120 43t54 127v217q-53 -39 -121 -55q-84 -18 -121.5 -61.5 t-37.5 -117.5zM868 676h285q-4 139 -32.5 200.5t-108.5 61.5q-76 0 -110 -64.5t-34 -154.5v-43z" />
<glyph unicode="&#xe7;" horiz-adv-x="948" d="M53 551q0 319 117 449t330 130q193 0 294 -113.5t101 -311.5h-270q0 221 -127 221q-98 0 -130 -85t-32 -292q0 -215 29.5 -300t121.5 -85q137 0 138 258h270q0 -406 -336 -447l-63 -100q41 10 67 10q66 0 119 -42t53 -109q0 -90 -67.5 -141.5t-190.5 -51.5 q-135 0 -205 39l39 94q53 -31 142 -30q43 0 72.5 20.5t29.5 48.5q0 31 -24.5 50.5t-65.5 19.5q-35 0 -70 -12l-45 41l96 159q-205 8 -299 138.5t-94 441.5z" />
<glyph unicode="&#xe8;" horiz-adv-x="948" d="M53 561q0 98 8.5 174t36 154t74.5 128t128 81.5t192 31.5q231 0 317 -140t86 -419v-63h-559v-88q0 -109 33.5 -182.5t105.5 -73.5q68 0 102.5 50t47.5 157h254q-16 -399 -400 -400q-86 0 -152.5 19.5t-110.5 48.5t-75.5 79t-48 95t-26 112.5t-11.5 115.5t-2 120z M215 1526h283l110 -295h-192zM336 676h289q-4 139 -33 200.5t-111 61.5q-78 0 -111.5 -64.5t-33.5 -154.5v-43z" />
<glyph unicode="&#xe9;" horiz-adv-x="948" d="M53 561q0 98 8.5 174t36 154t74.5 128t128 81.5t192 31.5q231 0 317 -140t86 -419v-63h-559v-88q0 -109 33.5 -182.5t105.5 -73.5q68 0 102.5 50t47.5 157h254q-16 -399 -400 -400q-86 0 -152.5 19.5t-110.5 48.5t-75.5 79t-48 95t-26 112.5t-11.5 115.5t-2 120zM336 676 h289q-4 139 -33 200.5t-111 61.5q-78 0 -111.5 -64.5t-33.5 -154.5v-43zM342 1231l111 295h282l-200 -295h-193z" />
<glyph unicode="&#xea;" horiz-adv-x="948" d="M53 561q0 98 8.5 174t36 154t74.5 128t128 81.5t192 31.5q231 0 317 -140t86 -419v-63h-559v-88q0 -109 33.5 -182.5t105.5 -73.5q68 0 102.5 50t47.5 157h254q-16 -399 -400 -400q-86 0 -152.5 19.5t-110.5 48.5t-75.5 79t-48 95t-26 112.5t-11.5 115.5t-2 120z M168 1231l160 295h295l159 -295h-217l-94 174l-98 -174h-205zM336 676h289q-4 139 -33 200.5t-111 61.5q-78 0 -111.5 -64.5t-33.5 -154.5v-43z" />
<glyph unicode="&#xeb;" horiz-adv-x="948" d="M53 561q0 98 8.5 174t36 154t74.5 128t128 81.5t192 31.5q231 0 317 -140t86 -419v-63h-559v-88q0 -109 33.5 -182.5t105.5 -73.5q68 0 102.5 50t47.5 157h254q-16 -399 -400 -400q-86 0 -152.5 19.5t-110.5 48.5t-75.5 79t-48 95t-26 112.5t-11.5 115.5t-2 120z M184 1249v242h230v-242h-230zM336 676h289q-4 139 -33 200.5t-111 61.5q-78 0 -111.5 -64.5t-33.5 -154.5v-43zM537 1249v242h229v-242h-229z" />
<glyph unicode="&#xec;" horiz-adv-x="491" d="M-14 1526h282l111 -295h-193zM104 0v1102h283v-1102h-283z" />
<glyph unicode="&#xed;" horiz-adv-x="491" d="M104 0v1102h283v-1102h-283zM113 1231l110 295h283l-201 -295h-192z" />
<glyph unicode="&#xee;" horiz-adv-x="491" d="M-61 1231l159 295h295l160 -295h-217l-94 174l-99 -174h-204zM104 0v1102h283v-1102h-283z" />
<glyph unicode="&#xef;" horiz-adv-x="491" d="M-45 1249v242h229v-242h-229zM104 0v1102h283v-1102h-283zM307 1249v242h230v-242h-230z" />
<glyph unicode="&#xf0;" d="M57 551q0 254 88 396.5t269 142.5q78 0 143 -54l4 4q-63 102 -188 246l-158 -92l-80 86l156 92l-135 131l213 125q66 -57 137 -129l153 92l89 -86l-158 -92q170 -186 253 -389t83 -473q0 -293 -99.5 -436.5t-334.5 -143.5q-244 -4 -339.5 136.5t-95.5 443.5zM340 537 q0 -94 4 -151.5t18.5 -114t46 -82t83.5 -25.5q84 0 117.5 85t33.5 288q0 193 -34 276.5t-117 83.5q-51 0 -83 -25.5t-46.5 -80t-18.5 -109.5t-4 -145z" />
<glyph unicode="&#xf1;" horiz-adv-x="1024" d="M94 0v1102h271v-129h4q86 158 280 157q281 0 281 -313v-817h-283v760q0 82 -28.5 117.5t-92.5 35.5q-150 0 -149 -182v-731h-283zM190 1249q35 254 191 254q53 0 88 -14l98 -43q31 -12 62 -12q27 0 42 24.5t15 48.5h148q-10 -113 -62.5 -183.5t-128.5 -70.5 q-47 0 -130 35t-114 35q-51 0 -65 -74h-144z" />
<glyph unicode="&#xf2;" d="M57 551q0 293 99.5 436t335.5 143q244 4 339 -136t95 -443q0 -293 -99.5 -436.5t-334.5 -143.5q-244 -4 -339.5 136.5t-95.5 443.5zM231 1526h283l111 -295h-193zM340 551q0 -98 4 -157.5t18.5 -118t46 -85t83.5 -26.5q84 0 117.5 89t33.5 298t-34 298t-117 89 q-51 0 -83 -26.5t-46.5 -85t-18.5 -118t-4 -157.5z" />
<glyph unicode="&#xf3;" d="M57 551q0 293 99.5 436t335.5 143q244 4 339 -136t95 -443q0 -293 -99.5 -436.5t-334.5 -143.5q-244 -4 -339.5 136.5t-95.5 443.5zM340 551q0 -98 4 -157.5t18.5 -118t46 -85t83.5 -26.5q84 0 117.5 89t33.5 298t-34 298t-117 89q-51 0 -83 -26.5t-46.5 -85t-18.5 -118 t-4 -157.5zM358 1231l111 295h283l-201 -295h-193z" />
<glyph unicode="&#xf4;" d="M57 551q0 293 99.5 436t335.5 143q244 4 339 -136t95 -443q0 -293 -99.5 -436.5t-334.5 -143.5q-244 -4 -339.5 136.5t-95.5 443.5zM184 1231l160 295h295l160 -295h-217l-95 174l-98 -174h-205zM340 551q0 -98 4 -157.5t18.5 -118t46 -85t83.5 -26.5q84 0 117.5 89 t33.5 298t-34 298t-117 89q-51 0 -83 -26.5t-46.5 -85t-18.5 -118t-4 -157.5z" />
<glyph unicode="&#xf5;" d="M57 551q0 293 99.5 436t335.5 143q244 4 339 -136t95 -443q0 -293 -99.5 -436.5t-334.5 -143.5q-244 -4 -339.5 136.5t-95.5 443.5zM170 1249q35 254 190 254q53 0 89 -14l98 -43q31 -12 61 -12q27 0 42.5 24.5t15.5 48.5h147q-10 -113 -62.5 -183.5t-127.5 -70.5 q-47 0 -130 35t-114 35q-51 0 -66 -74h-143zM340 551q0 -98 4 -157.5t18.5 -118t46 -85t83.5 -26.5q84 0 117.5 89t33.5 298t-34 298t-117 89q-51 0 -83 -26.5t-46.5 -85t-18.5 -118t-4 -157.5z" />
<glyph unicode="&#xf6;" d="M57 551q0 293 99.5 436t335.5 143q244 4 339 -136t95 -443q0 -293 -99.5 -436.5t-334.5 -143.5q-244 -4 -339.5 136.5t-95.5 443.5zM201 1249v242h229v-242h-229zM340 551q0 -98 4 -157.5t18.5 -118t46 -85t83.5 -26.5q84 0 117.5 89t33.5 298t-34 298t-117 89 q-51 0 -83 -26.5t-46.5 -85t-18.5 -118t-4 -157.5zM553 1249v242h229v-242h-229z" />
<glyph unicode="&#xf7;" horiz-adv-x="1228" d="M96 391v254h1037v-254h-1037zM416 84q0 84 58 141.5t140 57.5t140.5 -57.5t58.5 -141.5t-58.5 -141.5t-140.5 -57.5t-140 57.5t-58 141.5zM416 952q0 84 58 141.5t140 57.5t140.5 -57.5t58.5 -141.5t-58.5 -141t-140.5 -57t-140 57t-58 141z" />
<glyph unicode="&#xf8;" d="M57 551q0 293 99.5 436t335.5 143q137 2 223 -43l69 134l90 -47l-75 -144q127 -125 127 -479q0 -293 -99.5 -436.5t-334.5 -143.5q-139 -4 -224 43l-69 -133l-90 47l75 144q-127 125 -127 479zM340 551q0 -121 4 -170h4l252 487q-33 70 -108 70q-51 0 -83 -26.5 t-46.5 -85t-18.5 -118t-4 -157.5zM381 231q33 -68 111 -67q84 0 117.5 89t33.5 298q0 74 -4 168h-4z" />
<glyph unicode="&#xf9;" horiz-adv-x="1024" d="M94 285v817h283v-760q0 -82 28.5 -118t92.5 -36q150 0 149 183v731h283v-1102h-271v129h-4q-86 -158 -280 -158q-281 1 -281 314zM252 1526h283l110 -295h-192z" />
<glyph unicode="&#xfa;" horiz-adv-x="1024" d="M94 285v817h283v-760q0 -82 28.5 -118t92.5 -36q150 0 149 183v731h283v-1102h-271v129h-4q-86 -158 -280 -158q-281 1 -281 314zM379 1231l110 295h283l-201 -295h-192z" />
<glyph unicode="&#xfb;" horiz-adv-x="1024" d="M94 285v817h283v-760q0 -82 28.5 -118t92.5 -36q150 0 149 183v731h283v-1102h-271v129h-4q-86 -158 -280 -158q-281 1 -281 314zM205 1231l160 295h294l160 -295h-217l-94 174l-98 -174h-205z" />
<glyph unicode="&#xfc;" horiz-adv-x="1024" d="M94 285v817h283v-760q0 -82 28.5 -118t92.5 -36q150 0 149 183v731h283v-1102h-271v129h-4q-86 -158 -280 -158q-281 1 -281 314zM221 1249v242h230v-242h-230zM573 1249v242h230v-242h-230z" />
<glyph unicode="&#xfd;" horiz-adv-x="909" d="M10 1102h295l164 -762h4l143 762h283l-266 -1028q-39 -150 -71 -230t-81 -129t-108.5 -62t-163.5 -13h-115v210q37 -6 74 -6q139 0 151 156zM322 1231l110 295h283l-201 -295h-192z" />
<glyph unicode="&#xfe;" horiz-adv-x="1024" d="M94 -360v1822h283v-477h4q70 145 237 145q174 0 256 -137t82 -442t-81.5 -442.5t-256.5 -137.5q-150 0 -237 131h-4v-462h-283zM377 550.5q0 -192.5 30.5 -277.5t118.5 -85t118 85t30 277.5t-30 277.5t-118 85t-118.5 -85t-30.5 -277.5z" />
<glyph unicode="&#xff;" horiz-adv-x="909" d="M10 1102h295l164 -762h4l143 762h283l-266 -1028q-39 -150 -71 -230t-81 -129t-108.5 -62t-163.5 -13h-115v210q37 -6 74 -6q139 0 151 156zM164 1249v242h229v-242h-229zM516 1249v242h229v-242h-229z" />
<glyph unicode="&#x152;" horiz-adv-x="1593" d="M72 748q0 127 9 224t36.5 199.5t75 169t129 108.5t192.5 42q203 0 266 -107h4v78h748v-241h-496v-344h465v-242h-465v-393h512v-242h-764v84h-4q-23 -51 -97.5 -82t-154.5 -31q-104 0 -182 29t-127 88t-79.5 123.5t-45 163t-18.5 178.5t-4 195zM367 731q0 -311 37.5 -427 t164.5 -116q123 0 154 105.5t31 437.5q0 117 -1 184.5t-7.5 138t-18.5 104.5t-32.5 64.5t-50.5 41t-75 10.5q-127 0 -164.5 -116t-37.5 -427z" />
<glyph unicode="&#x153;" horiz-adv-x="1517" d="M59 551q0 293 99.5 436t335.5 143q211 0 292 -153q41 74 113 113.5t156 39.5q231 0 317 -140t86 -419v-63h-559v-88q0 -109 34 -182.5t105 -73.5q68 0 103 50t47 157h254q-16 -399 -383 -400q-225 0 -287 162q-29 -76 -111.5 -119t-191.5 -43q-227 0 -318.5 139.5 t-91.5 440.5zM342 551q0 -98 4 -157.5t19.5 -118t48 -85t84.5 -26.5q82 0 114.5 89t32.5 298t-33.5 298t-117.5 89q-51 0 -83 -26.5t-46.5 -85t-18.5 -118t-4 -157.5zM899 676h289q-4 139 -33 200.5t-111 61.5q-78 0 -111.5 -64.5t-33.5 -154.5v-43z" />
<glyph unicode="&#x178;" horiz-adv-x="1064" d="M6 1462h332l192 -565h5l204 565h320l-379 -887v-575h-295v575zM242 1567v241h229v-241h-229zM594 1567v241h229v-241h-229z" />
<glyph unicode="&#x2c6;" horiz-adv-x="454" d="M-80 1231l160 295h295l160 -295h-218l-94 174l-98 -174h-205z" />
<glyph unicode="&#x2dc;" horiz-adv-x="454" d="M-94 1249q35 254 190 254q53 0 88 -14l99 -43q31 -12 61 -12q27 0 42 24.5t15 48.5h148q-10 -113 -62.5 -183.5t-128.5 -70.5q-47 0 -130 35t-113 35q-51 0 -66 -74h-143z" />
<glyph unicode="&#x2013;" horiz-adv-x="1024" d="M0 477v230h1024v-230h-1024z" />
<glyph unicode="&#x2014;" horiz-adv-x="2048" d="M0 477v230h2048v-230h-2048z" />
<glyph unicode="&#x2018;" horiz-adv-x="532" d="M131 805v266q0 180 58.5 278.5t211.5 112.5v-143q-51 -8 -78.5 -54t-27.5 -108v-33h106v-319h-270z" />
<glyph unicode="&#x2019;" horiz-adv-x="532" d="M131 805v143q51 8 79 54.5t28 107.5v33h-107v319h270v-266q0 -180 -58 -278.5t-212 -112.5z" />
<glyph unicode="&#x201a;" horiz-adv-x="532" d="M131 0v319h270v-266q0 -180 -58 -278.5t-212 -112.5v143q51 8 79 54.5t28 107.5v33h-107z" />
<glyph unicode="&#x201c;" horiz-adv-x="948" d="M139 805v266q0 180 58.5 278.5t212.5 112.5v-143q-51 -8 -79 -54t-28 -108v-33h107v-319h-271zM539 805v266q0 180 58 278.5t212 112.5v-143q-51 -8 -79 -54t-28 -108v-33h107v-319h-270z" />
<glyph unicode="&#x201d;" horiz-adv-x="948" d="M139 805v143q51 8 79 54.5t28 107.5v33h-107v319h271v-266q0 -180 -58.5 -278.5t-212.5 -112.5zM539 805v143q51 8 78.5 54.5t27.5 107.5v33h-106v319h270v-266q0 -180 -58 -278.5t-212 -112.5z" />
<glyph unicode="&#x201e;" horiz-adv-x="948" d="M139 0v319h271v-266q0 -180 -58.5 -278.5t-212.5 -112.5v143q51 8 79 54.5t28 107.5v33h-107zM539 0v319h270v-266q0 -180 -58.5 -278.5t-211.5 -112.5v143q51 8 78.5 54.5t27.5 107.5v33h-106z" />
<glyph unicode="&#x2022;" horiz-adv-x="1024" d="M147 731.5q0 149.5 106.5 257t258.5 107.5t258.5 -107.5t106.5 -257t-106.5 -257t-258.5 -107.5t-258.5 107.5t-106.5 257z" />
<glyph unicode="&#x2026;" horiz-adv-x="2048" d="M207 0v319h270v-319h-270zM889 0v319h270v-319h-270zM1571 0v319h270v-319h-270z" />
<glyph unicode="&#x2039;" horiz-adv-x="493" d="M94 426v332l305 246v-271l-161 -141l161 -141v-271z" />
<glyph unicode="&#x203a;" horiz-adv-x="493" d="M94 180v271l162 141l-162 141v271l305 -246v-332z" />
<glyph unicode="&#x20ac;" d="M53 528l60 160h77l3 105h-140l62 159h84q43 504 467 504q182 0 315 -102l-94 -205q-98 104 -203 104q-117 0 -160 -100q-27 -61 -35 -201h345l-60 -159h-291v-105h271l-60 -160h-207q6 -160 27 -221q39 -125 156 -125q106 0 264 137v-256q-156 -92 -309 -92 q-414 0 -430 557h-142z" />
<glyph unicode="&#x2122;" horiz-adv-x="2027" d="M63 1270v192h689v-192h-230v-656h-229v656h-230zM905 614v848h346l170 -512h4l170 512h347v-848h-218v582h-4l-194 -582h-205l-195 582h-4v-582h-217z" />
<glyph unicode="&#xe000;" horiz-adv-x="1100" d="M0 1100h1100v-1100h-1100v1100z" />
<glyph unicode="&#xfb01;" horiz-adv-x="1099" d="M12 909v193h144v125q0 143 74.5 203.5t220.5 60.5q74 0 151 -6v-201q-18 2 -55 2q-59 0 -84 -20.5t-25 -67.5v-96h164v-193h-164v-909h-282v909h-144zM713 0v1102h282v-1102h-282zM713 1237v242h282v-242h-282z" />
<glyph unicode="&#xfb02;" horiz-adv-x="1099" d="M12 909v193h144v125q0 143 74.5 203.5t220.5 60.5q74 0 151 -6v-201q-18 2 -55 2q-59 0 -84 -20.5t-25 -67.5v-96h164v-193h-164v-909h-282v909h-144zM713 0v1479h282v-1479h-282z" />
<glyph unicode="&#xfb03;" horiz-adv-x="1703" d="M1316 0v1102h283v-1102h-283zM1316 1237v242h283v-242h-283zM618 909v193h144v125q0 143 74.5 203.5t220.5 60.5q74 0 151 -6v-201q-18 2 -55 2q-59 0 -84 -20.5t-25 -67.5v-96h164v-193h-164v-909h-282v909h-144zM12 909v193h144v125q0 143 74.5 203.5t220.5 60.5 q74 0 151 -6v-201q-18 2 -55 2q-59 0 -84 -20.5t-25 -67.5v-96h164v-193h-164v-909h-282v909h-144z" />
<glyph unicode="&#xfb04;" horiz-adv-x="1703" d="M1316 0v1462h283v-1462h-283zM618 909v193h144v125q0 143 74.5 203.5t220.5 60.5q74 0 151 -6v-201q-18 2 -55 2q-59 0 -84 -20.5t-25 -67.5v-96h164v-193h-164v-909h-282v909h-144zM12 909v193h144v125q0 143 74.5 203.5t220.5 60.5q74 0 151 -6v-201q-18 2 -55 2 q-59 0 -84 -20.5t-25 -67.5v-96h164v-193h-164v-909h-282v909h-144z" />
</font>
</defs>
</svg>
