<?xml version="1.0" standalone="no"?>
<!DOCTYPE svg PUBLIC "-//W3C//DTD SVG 1.1//EN" "http://www.w3.org/Graphics/SVG/1.1/DTD/svg11.dtd" >
<svg xmlns="http://www.w3.org/2000/svg">
<metadata>
This is a custom SVG webfont generated by Font Squirrel.
Copyright   : Part of the digitally encoded machine readable outline data for producing the Typefaces provided is copyrighted  2006 Linotype GmbH wwwlinotypecom All rights reserved This software is the property of Linotype GmbH and may not be reproduced used displayed modified disclosed or transferred without the express written approval of Linotype GmbH  Copyright  1988 1990 1993 Adobe Systems Incorporated All Rights Reserved Helvetica is a trademark of Heidelberger Druckmaschinen AG exclusively licensed through Linotype GmbH and may be registered in certain jurisdictions This typeface is original artwork of Linotype Design Studio The design may be protected in certain jurisdictions
Designer    : Linotype Design Studio
Foundry     : Linotype GmbH
Foundry URL : httpwwwlinotypecom
</metadata>
<defs>
<font id="HelveticaNeueLTCom27UltraLtCn" horiz-adv-x="833" >
<font-face units-per-em="2048" ascent="1462" descent="-586" />
<missing-glyph horiz-adv-x="491" />
<glyph unicode=" "  horiz-adv-x="491" />
<glyph unicode="&#x09;" horiz-adv-x="491" />
<glyph unicode="&#xa0;" horiz-adv-x="491" />
<glyph unicode="!" horiz-adv-x="417" d="M188 0v201h41v-201h-41zM188 373v1089h41v-1089h-41z" />
<glyph unicode="&#x22;" horiz-adv-x="530" d="M154 1014v448h41v-448h-41zM336 1014v448h41v-448h-41z" />
<glyph unicode="#" horiz-adv-x="983" d="M45 479v37h199l53 393h-193v37h199l68 479h41l-68 -479h361l67 479h41l-68 -479h193v-37h-199l-53 -393h193v-37h-199l-68 -479h-41l68 479h-360l-68 -479h-41l68 479h-193zM285 516h360l53 393h-360z" />
<glyph unicode="$" horiz-adv-x="983" d="M82 373v61h41v-61q0 -162 90 -259.5t256 -101.5v717q-78 25 -142.5 52.5t-110.5 68.5t-72.5 99.5t-26.5 144.5q0 51 17.5 111.5t58 113.5t108.5 90t168 41v121h41v-121q102 -2 172 -35t113 -84t61 -113.5t18 -125.5v-29h-40v33q0 147 -87.5 230t-236.5 87v-657l140 -51 q71 -27 126 -69t90 -104.5t35 -158.5q0 -68 -21.5 -137.5t-68.5 -126t-121 -93t-180 -41.5v-168h-41v168q-102 2 -175 36t-120 89.5t-69.5 126t-22.5 146.5zM158 1085q0 -74 25.5 -125t68.5 -85.5t99.5 -59t117.5 -45.5v643q-80 -4 -138.5 -32.5t-96 -73.5t-57 -103 t-19.5 -119zM510 12q70 4 134.5 27.5t111.5 70t75.5 114t28.5 159.5q0 80 -30.5 134t-81 91t-113 61.5t-125.5 45.5v-703z" />
<glyph unicode="%" horiz-adv-x="1327" d="M117 1098q0 178 67.5 265t177.5 87q51 0 97.5 -17.5t80 -57.5t52 -108.5t16.5 -168.5q-2 -109 -27.5 -177.5t-62.5 -107.5t-79 -52t-77 -13q-245 0 -245 350zM158 1098q0 -57 8 -113.5t30.5 -100.5t62.5 -72t103 -28q55 0 94.5 25t64 68t35.5 99t11 122q0 63 -7 120.5 t-28.5 100.5t-62.5 68.5t-107 25.5q-57 0 -96 -25.5t-63.5 -68.5t-34.5 -100.5t-10 -120.5zM336 -37l610 1499h41l-610 -1499h-41zM719 326q0 178 67.5 265t178.5 87q51 0 97 -17.5t80 -57.5t52 -108.5t16 -168.5q-2 -109 -27.5 -177.5t-62.5 -107.5t-79 -52.5t-76 -13.5 q-246 1 -246 351zM760 326q0 -57 8 -113.5t30.5 -100.5t62.5 -72t104 -28q55 0 94 24.5t63.5 67.5t35.5 99.5t11 122.5q0 63 -7 120.5t-28.5 100.5t-62.5 68.5t-106 25.5q-57 0 -96.5 -25.5t-64 -68.5t-34.5 -100.5t-10 -120.5z" />
<glyph unicode="&#x26;" horiz-adv-x="1062" d="M51 334q0 115 53.5 204t176.5 181l139 108l-67 92q-34 46 -61.5 94t-45 97t-17.5 98q0 43 17.5 87t51.5 78t83 55.5t111 21.5q111 0 180 -69.5t69 -174.5q0 -117 -77.5 -214t-188.5 -175l363 -508q12 33 20 63.5t13.5 61.5t8.5 66t7 75h41q-8 -78 -18.5 -153.5 t-43.5 -151.5l193 -270h-47l-168 229q-70 -123 -169.5 -188.5t-246.5 -65.5q-90 0 -159.5 30t-118 80t-74 114.5t-25.5 134.5zM92 332q0 -80 31 -140.5t79 -100.5t108.5 -59.5t119.5 -19.5q141 0 232.5 69t156.5 187l-375 527l-137 -107q-57 -43 -98 -83t-66.5 -82t-38 -89 t-12.5 -102zM270 1200q0 -37 17.5 -81t43 -90t58.5 -92l64 -87q131 94 189 178t58 184q0 86 -55 143.5t-160 57.5q-41 0 -79.5 -14.5t-68.5 -42t-48.5 -67.5t-18.5 -89z" />
<glyph unicode="'" horiz-adv-x="344" d="M152 1014v448h41v-448h-41z" />
<glyph unicode="(" horiz-adv-x="417" d="M131 522q0 154 18.5 285t51 245.5t75.5 215t93 194.5h41q-123 -229 -180.5 -463.5t-57.5 -476.5q0 -117 13.5 -226.5t42 -218t73.5 -220t109 -234.5h-41q-109 205 -173.5 424t-64.5 475z" />
<glyph unicode=")" horiz-adv-x="417" d="M8 -377q123 229 180.5 464t57.5 476q0 117 -13.5 226.5t-42 218t-73.5 220t-109 234.5h41q109 -205 173.5 -424t64.5 -475q0 -154 -18.5 -285t-51.5 -245.5t-76 -215t-92 -194.5h-41z" />
<glyph unicode="*" horiz-adv-x="569" d="M80 1298l20 37l164 -71v198h41v-198l164 71l20 -37l-174 -69l123 -164l-30 -25l-123 164l-123 -164l-31 25l123 164z" />
<glyph unicode="+" horiz-adv-x="1228" d="M96 500v37h498v499h41v-499h498v-37h-498v-500h-41v500h-498z" />
<glyph unicode="," horiz-adv-x="491" d="M180 -184q2 6 9.5 16t15.5 29.5t14 51.5t6 81v207h41v-211q0 -78 -19.5 -137.5t-66.5 -100.5v64z" />
<glyph unicode="-" horiz-adv-x="606" d="M133 539v36h340v-36h-340z" />
<glyph unicode="." horiz-adv-x="491" d="M225 0v201h41v-201h-41z" />
<glyph unicode="/" horiz-adv-x="569" d="M-8 -25l545 1512h41l-545 -1512h-41z" />
<glyph unicode="0" horiz-adv-x="983" d="M92 713q0 160 17.5 295t61.5 233t122 153.5t199 55.5q123 0 200.5 -54.5t121.5 -152.5t60.5 -233.5t16.5 -296.5q0 -180 -19.5 -317.5t-66.5 -230.5t-124 -141.5t-189 -48.5q-115 0 -191 48.5t-123 141.5t-66.5 230.5t-19.5 317.5zM133 713q0 -152 14.5 -281t54.5 -222 t109.5 -145.5t180.5 -52.5t180 52.5t109 145.5t54.5 222t14.5 281q0 168 -16.5 299t-57.5 220t-110.5 135t-173.5 46q-102 0 -171 -47t-111 -136t-59.5 -220t-17.5 -297z" />
<glyph unicode="1" horiz-adv-x="983" d="M150 1161v37q111 29 193.5 91.5t152.5 160.5h57v-1450h-41v1413h-4q-23 -43 -65 -86t-93 -79t-104 -59.5t-96 -27.5z" />
<glyph unicode="2" horiz-adv-x="983" d="M98 0q0 68 10.5 122t29 100t47 88t65.5 83q18 23 55 54l83 69l95 74l92 70l76 60q33 26 45 40q66 76 99.5 145.5t33.5 169.5q0 72 -20.5 133.5t-62 107.5t-103 71.5t-141.5 25.5q-90 0 -154.5 -33.5t-107.5 -89t-63.5 -127t-20.5 -147.5h-41q0 98 27.5 178t78.5 137.5 t121 88t156 30.5q172 0 272 -99.5t100 -283.5q0 -123 -54 -211t-135 -160.5t-176 -137t-176 -138.5t-135.5 -165t-54.5 -218h746v-37h-787z" />
<glyph unicode="3" horiz-adv-x="983" d="M94 369h41q0 -84 25.5 -149.5t72 -112t106.5 -71t132 -24.5q190 0 283.5 108.5t93.5 280.5q0 96 -35 161t-90 105t-124 56t-136 16h-47v37h49q150 0 243 76t93 242q0 156 -86 237.5t-228 81.5q-59 0 -118.5 -18.5t-106.5 -59.5t-75.5 -105.5t-28.5 -156.5h-41 q0 86 26.5 155.5t75.5 119t118 76t152 26.5q168 0 260.5 -97.5t92.5 -258.5q0 -78 -20.5 -135.5t-55.5 -97.5t-79 -64.5t-91 -34.5v-4q143 -29 218 -123t75 -236q0 -203 -112.5 -313.5t-305.5 -110.5q-82 0 -150.5 29t-118.5 81t-79 125t-29 159z" />
<glyph unicode="4" horiz-adv-x="983" d="M70 412v37l620 1001h45v-1001h178v-37h-178v-412h-41v412h-624zM111 449h583v933h-4z" />
<glyph unicode="5" horiz-adv-x="983" d="M94 362h41q2 -166 95.5 -258t242.5 -92q70 0 136.5 24.5t119.5 80t86 145.5t33 221q0 106 -27.5 186.5t-75 133.5t-114 80.5t-142.5 27.5q-33 0 -75.5 -8t-87.5 -32.5t-87 -67.5t-71 -113h-53l82 735h612v-36h-576l-73 -633h4q53 98 137 145t188 47q82 0 156 -28.5 t127 -87t85 -145.5t32 -206q0 -111 -26.5 -203t-79 -159.5t-130.5 -105.5t-180 -38q-78 0 -146.5 25t-118.5 74t-81 120.5t-33 167.5z" />
<glyph unicode="6" horiz-adv-x="983" d="M90 592q0 160 10.5 281.5t32 215t56 159t81.5 110.5q53 51 110.5 71.5t135.5 20.5q80 0 141.5 -24.5t103.5 -68.5t64.5 -102.5t26.5 -126.5h-41q-8 129 -83 207t-210 78q-86 0 -138 -23.5t-97 -70.5q-39 -43 -68 -103.5t-47 -146.5t-27.5 -202.5t-9.5 -272.5h4 q8 61 34 121.5t71 106.5t108.5 75t147.5 29q102 0 177 -35t124 -97.5t72.5 -147.5t23.5 -185q0 -127 -34 -218t-89 -150.5t-128 -88.5t-148 -29q-76 0 -149 29t-129 99.5t-91 189.5t-35 299zM150 451q0 -82 19 -161t61 -140.5t107.5 -99.5t156.5 -38q94 0 161.5 39 t111.5 101.5t64.5 141.5t20.5 161q0 86 -17.5 163.5t-59.5 138t-108.5 96.5t-164.5 36q-94 0 -161 -39t-110 -100.5t-62 -140t-19 -158.5z" />
<glyph unicode="7" horiz-adv-x="983" d="M98 1389v36h787v-51q-115 -133 -215.5 -298t-176 -345t-123.5 -366.5t-61 -364.5h-41q6 176 58.5 372.5t133.5 385t181 353.5t203 278h-746z" />
<glyph unicode="8" horiz-adv-x="983" d="M92 399q0 76 24.5 141.5t65.5 116t93.5 81t107.5 36.5v4q-53 6 -97 33t-77 69t-51.5 97t-18.5 121q0 74 23.5 137t70 111.5t112 76t149.5 27.5q86 0 151.5 -25.5t110.5 -71.5t68.5 -108.5t23.5 -138.5q0 -143 -69.5 -221t-174.5 -107l-4 -4q55 -6 107.5 -36.5t93.5 -81 t65.5 -116t24.5 -141.5q0 -92 -25.5 -169.5t-77 -134t-125 -88.5t-171.5 -32t-172 32t-125.5 88.5t-77 134t-25.5 169.5zM133 383q0 -66 19.5 -131.5t62.5 -118.5t111.5 -87t165.5 -34q96 0 164.5 34t111.5 87t62.5 118.5t19.5 131.5q0 94 -29.5 164.5t-79 118t-115 71 t-134.5 23.5q-72 0 -136.5 -23.5t-113.5 -71t-79 -118t-30 -164.5zM180 1102q0 -141 80 -223t234 -82q143 0 228 85t85 220q0 137 -77 224t-236 87q-72 0 -130.5 -24.5t-99.5 -66.5t-62.5 -99.5t-21.5 -120.5z" />
<glyph unicode="9" horiz-adv-x="983" d="M90 965q0 125 34 217t89 151.5t127 88t149 28.5q76 0 149 -28.5t129 -99.5t91 -189.5t35 -298.5q0 -160 -10.5 -282t-32 -215t-56 -158.5t-81.5 -110.5q-53 -51 -110.5 -72t-135.5 -21t-139.5 25t-104.5 69t-66.5 102t-25.5 126h41q8 -129 83 -207t210 -78q86 0 138 23.5 t97 70.5q39 43 68 103.5t47.5 146.5t27.5 203t9 272h-4q-8 -61 -35 -121.5t-71 -106.5t-107.5 -74.5t-147.5 -28.5q-102 0 -176.5 34.5t-124 97t-73 148t-23.5 185.5zM131 971q0 -86 17.5 -164t59.5 -138.5t108.5 -96t164.5 -35.5q94 0 161 38.5t110 100t62.5 140.5 t19.5 159q0 82 -19.5 160.5t-61.5 140t-107.5 99.5t-156.5 38q-94 0 -161.5 -39t-111.5 -101.5t-64.5 -141t-20.5 -160.5z" />
<glyph unicode=":" horiz-adv-x="491" d="M225 0v201h41v-201h-41zM225 807v201h41v-201h-41z" />
<glyph unicode=";" horiz-adv-x="491" d="M180 -184q2 6 9.5 16t15.5 29.5t14 51.5t6 81v207h41v-211q0 -78 -19.5 -137.5t-66.5 -100.5v64zM225 807v201h41v-201h-41z" />
<glyph unicode="&#x3c;" horiz-adv-x="1228" d="M96 500v37l1037 516v-37l-996 -498l996 -498v-36z" />
<glyph unicode="=" horiz-adv-x="1228" d="M96 301v37h1037v-37h-1037zM96 698v37h1037v-37h-1037z" />
<glyph unicode="&#x3e;" horiz-adv-x="1228" d="M96 -16v36l996 498l-996 498v37l1037 -516v-37z" />
<glyph unicode="?" d="M63 1036v45q0 100 30 176t80 127.5t115.5 77t137.5 25.5q82 0 145.5 -24.5t107.5 -66.5t67.5 -100.5t23.5 -126.5q0 -53 -10 -98t-32.5 -88t-61.5 -89t-97 -103q-45 -43 -74.5 -78t-48 -69t-25.5 -70.5t-7 -86.5v-114h-41v137q0 72 26.5 127t65.5 102t86 90t86 92.5 t65.5 110t26.5 139.5q0 70 -25.5 123.5t-67.5 87t-97.5 51t-112.5 17.5q-55 0 -112.5 -19.5t-103.5 -63.5t-76 -113.5t-30 -170.5v-47h-41zM373 0v201h41v-201h-41z" />
<glyph unicode="@" horiz-adv-x="1638" d="M63 731q0 156 62.5 294t171.5 240.5t253 162t310 59.5q147 0 277.5 -47t227.5 -130t153.5 -199t56.5 -253q0 -113 -42 -218t-110.5 -186t-155.5 -130.5t-177 -49.5q-51 0 -88 31t-37 84q0 23 5 47.5t13 48.5h-4q-66 -121 -150 -166t-165 -45q-66 0 -117 24t-88 63.5 t-56.5 92t-19.5 109.5q0 109 34 219.5t98.5 199.5t156.5 145.5t209 56.5q92 0 161.5 -45t85.5 -131h5l43 135h41l-195 -656q-8 -31 -12 -56t-4 -48q0 -31 23.5 -51.5t62.5 -16.5q86 0 165.5 48.5t141 125t98.5 172t37 191.5q0 147 -59.5 260t-155.5 187.5t-217 112.5 t-242 38q-158 0 -295 -56.5t-239.5 -153.5t-162 -228t-59.5 -281t59.5 -281t162 -228t239.5 -153.5t295 -56.5q106 0 204.5 28t181.5 75t146.5 107.5t100.5 125.5h49q-49 -86 -124 -155.5t-164 -117.5t-190 -74t-204 -26q-166 0 -310 59.5t-253 162t-171.5 239.5t-62.5 295z M424 563q0 -111 70.5 -181.5t187.5 -70.5q66 0 122 36t102 93.5t83 128t61.5 138t37 126t12.5 93.5q0 61 -19.5 103t-51.5 67.5t-70.5 38t-77.5 12.5q-102 0 -186.5 -50t-145 -133t-93 -187.5t-32.5 -213.5z" />
<glyph unicode="A" horiz-adv-x="985" d="M4 0l465 1462h49l463 -1462h-41l-149 475h-596l-150 -475h-41zM207 512h573l-284 913h-4z" />
<glyph unicode="B" horiz-adv-x="985" d="M119 0v1462h373q186 0 281 -93t95 -247q0 -162 -68.5 -252t-205.5 -102v-4q78 -2 138.5 -30.5t100 -77t60 -114t20.5 -141.5q0 -199 -108.5 -300t-298.5 -101h-387zM160 37h311q205 0 303 88t98 274q0 106 -33.5 174t-87 106t-122 52t-135.5 14h-334v-708zM160 782h311 q76 0 141.5 14.5t113.5 51.5t74.5 100.5t26.5 161.5q0 147 -79.5 231t-258.5 84h-329v-643z" />
<glyph unicode="C" horiz-adv-x="1024" d="M78 731q0 135 19.5 270.5t71.5 243t142 175t234 67.5q117 0 193.5 -44t122.5 -110.5t66.5 -143.5t24.5 -145h-41q-4 84 -27.5 158t-68.5 129t-111.5 87t-156.5 32q-127 0 -210 -60.5t-131 -160t-67.5 -229.5t-19.5 -269t19.5 -269t67.5 -229.5t131 -160t210 -60.5 q115 0 187.5 52.5t114.5 127t60.5 155.5t24.5 138h41q-10 -92 -37 -183t-77 -163.5t-127 -118t-189 -45.5q-143 0 -233.5 68t-142.5 175.5t-71.5 242.5t-19.5 270z" />
<glyph unicode="D" horiz-adv-x="1024" d="M119 0v1462h352q143 0 236.5 -55t145.5 -151.5t72.5 -225.5t20.5 -274q0 -225 -41 -371.5t-112.5 -231.5t-170 -119t-212.5 -34h-291zM160 37h272q246 0 359.5 185.5t113.5 533.5q0 166 -22.5 290.5t-74.5 208.5t-139 127t-214 43h-295v-1388z" />
<glyph unicode="E" d="M119 0v1462h665v-37h-624v-643h579v-37h-579v-708h641v-37h-682z" />
<glyph unicode="F" horiz-adv-x="796" d="M119 0v1462h665v-37h-624v-643h579v-37h-579v-745h-41z" />
<glyph unicode="G" horiz-adv-x="1062" d="M78 731q0 135 19.5 270.5t71.5 243t142 175t234 67.5q117 0 193.5 -44t122.5 -110.5t66.5 -143.5t24.5 -145h-41q-4 86 -27.5 160t-68.5 129.5t-111.5 86t-156.5 30.5q-127 0 -210 -60.5t-131 -160t-67.5 -229.5t-19.5 -269t19.5 -269t67.5 -229.5t131 -160t210 -60.5 q57 0 123.5 24.5t124 89t96.5 175.5t43 285v86h-455v37h496v-709h-41v317h-4q-16 -68 -48 -129t-79 -108t-111.5 -76t-146.5 -29q-143 0 -233.5 68t-142.5 175.5t-71.5 242.5t-19.5 270z" />
<glyph unicode="H" horiz-adv-x="1024" d="M119 0v1462h41v-663h704v663h41v-1462h-41v762h-704v-762h-41z" />
<glyph unicode="I" horiz-adv-x="303" d="M131 0v1462h41v-1462h-41z" />
<glyph unicode="J" horiz-adv-x="796" d="M41 350v82h41v-92q0 -160 72.5 -244t210.5 -84q57 0 107 14.5t87 50.5t57.5 96t20.5 151v1138h41v-1145q0 -180 -85 -261t-226 -81q-92 0 -153.5 31t-100.5 82t-55.5 118.5t-16.5 143.5z" />
<glyph unicode="K" horiz-adv-x="909" d="M119 0v1462h41v-862h4l651 862h47l-469 -616l510 -846h-43l-491 815l-209 -276v-539h-41z" />
<glyph unicode="L" d="M119 0v1462h41v-1425h624v-37h-665z" />
<glyph unicode="M" horiz-adv-x="1290" d="M113 0v1462h67l465 -1396h4l463 1396h66v-1462h-41v1409l-4 4v-4l-463 -1409h-49l-463 1409h-4v-1409h-41z" />
<glyph unicode="N" horiz-adv-x="1024" d="M109 0v1462h67l694 -1396h4v1396h41v-1462h-59l-702 1425h-4v-1425h-41z" />
<glyph unicode="O" horiz-adv-x="1099" d="M78 731q0 135 20.5 270.5t72.5 243t143.5 175t230.5 67.5q115 0 195.5 -43t134 -110.5t83 -152.5t44 -169t17.5 -159t3 -122t-2 -121.5t-15.5 -158.5t-41 -169t-78.5 -153t-131 -111t-195 -43q-143 0 -236.5 68t-147.5 175.5t-75.5 242.5t-21.5 270zM119 731 q0 -139 19.5 -269t67.5 -229.5t131 -160t210 -60.5q125 0 209 57.5t134 155t70.5 228.5t20.5 278t-20.5 278.5t-70.5 228.5t-134 154.5t-209 57.5q-127 0 -210 -60.5t-131 -160t-67.5 -229.5t-19.5 -269z" />
<glyph unicode="P" horiz-adv-x="948" d="M119 0v1462h401q74 0 138.5 -26.5t111.5 -75.5t73.5 -122t26.5 -165q0 -111 -35.5 -186.5t-92 -123.5t-128 -69.5t-143.5 -21.5h-311v-672h-41zM160 709h315q57 0 120.5 17t115 59t85 113t33.5 177q0 76 -20.5 139.5t-60 110.5t-100 73.5t-140.5 26.5h-348v-716z" />
<glyph unicode="Q" horiz-adv-x="1099" d="M78 731q0 135 20.5 270.5t72.5 243t143.5 175t230.5 67.5q115 0 195.5 -43t134 -110.5t83 -152.5t44 -169t17.5 -159t3 -122q0 -49 -4 -125t-19.5 -161t-47 -171t-87.5 -153l158 -168l-29 -29l-153 168q-51 -53 -124 -85t-171 -32q-143 0 -233.5 68t-142.5 175.5 t-71.5 242.5t-19.5 270zM119 731q0 -139 19.5 -269t67.5 -229.5t131 -160t210 -60.5q168 0 268 107l-192 207l30 22l187 -201q78 98 109.5 251t31.5 333q0 147 -20.5 278.5t-70.5 228.5t-134 154.5t-209 57.5q-127 0 -210 -60.5t-131 -160t-67.5 -229.5t-19.5 -269z" />
<glyph unicode="R" horiz-adv-x="985" d="M119 0v1462h395q70 0 136.5 -17.5t118.5 -61.5t83 -117.5t31 -186.5q0 -166 -79 -257t-214 -107v-4q88 -10 142 -40t85 -80t42 -121t13 -165q2 -82 4.5 -130t5.5 -78.5t9 -51t16 -45.5h-41q-8 18 -13 33.5t-9 46.5t-7 84t-6 145q-4 119 -22 192.5t-61 115.5t-114 57.5 t-177 15.5h-297v-690h-41zM160 727h280q211 0 306.5 93t95.5 259q0 346 -332 346h-350v-698z" />
<glyph unicode="S" horiz-adv-x="948" d="M63 383v63h41v-63q0 -168 92.5 -269.5t266.5 -101.5q76 0 145.5 22.5t121.5 69t83 119t31 170.5q0 84 -32 140.5t-83 94.5t-115.5 62.5t-128.5 44.5q-84 27 -153.5 55.5t-121.5 71.5t-81 105.5t-29 154.5q0 53 18.5 117t62.5 119t116 92t180 37q106 0 179 -33t118 -86 t64.5 -118.5t19.5 -129.5v-30h-41v34q0 156 -92 241t-252 85q-84 0 -146.5 -28.5t-103.5 -76t-61.5 -107.5t-20.5 -124q0 -86 32 -141t84 -93t118.5 -63.5t137.5 -49.5t137.5 -50.5t118.5 -69.5t84 -106.5t32 -157.5q0 -72 -22.5 -144.5t-74 -131t-131 -95.5t-192.5 -37 q-106 0 -182 35t-125 91.5t-72 130t-23 151.5z" />
<glyph unicode="T" horiz-adv-x="835" d="M0 1425v37h836v-37h-398v-1425h-41v1425h-397z" />
<glyph unicode="U" horiz-adv-x="985" d="M100 395v1067h41v-1061q0 -66 12.5 -134t50.5 -124.5t106.5 -93.5t181.5 -37t182 37t107 93.5t50.5 125t12.5 133.5v1061h41v-1067q0 -205 -101.5 -312.5t-291.5 -107.5q-186 0 -289 107.5t-103 312.5z" />
<glyph unicode="V" horiz-adv-x="909" d="M12 1462h41l398 -1396h4l401 1396h41l-418 -1462h-53z" />
<glyph unicode="W" horiz-adv-x="1441" d="M31 1462h41l309 -1396h4l307 1396h58l301 -1396h4l315 1396h41l-332 -1462h-53l-305 1409h-4l-309 -1409h-52z" />
<glyph unicode="X" horiz-adv-x="909" d="M12 0l422 756l-395 706h43l375 -669l374 669h41l-393 -706l420 -756h-43l-401 719l-402 -719h-41z" />
<glyph unicode="Y" horiz-adv-x="872" d="M6 1462h43l387 -803l389 803h41l-409 -846v-616h-41v616z" />
<glyph unicode="Z" horiz-adv-x="909" d="M41 0v41l782 1384h-737v37h778v-41l-782 -1384h786v-37h-827z" />
<glyph unicode="[" horiz-adv-x="417" d="M160 -377v1839h235v-37h-194v-1765h194v-37h-235z" />
<glyph unicode="\" horiz-adv-x="569" d="M-8 1487h41l545 -1512h-41z" />
<glyph unicode="]" horiz-adv-x="417" d="M23 -340h194v1765h-194v37h235v-1839h-235v37z" />
<glyph unicode="^" horiz-adv-x="1228" d="M125 498l473 927h33l473 -927h-37l-453 891l-452 -891h-37z" />
<glyph unicode="_" horiz-adv-x="1024" d="M0 -154h1024v-102h-1024v102z" />
<glyph unicode="`" horiz-adv-x="266" d="M-2 1495h41l170 -285h-41z" />
<glyph unicode="a" horiz-adv-x="757" d="M59 276q0 129 68 195t184 88q53 10 112.5 23.5t102.5 29.5q45 14 63.5 51t18.5 128q0 70 -9 106.5t-32 67.5q-27 35 -74 57t-104 22q-92 0 -142 -32.5t-73.5 -77.5t-28 -92t-4.5 -78h-41v35q0 51 16.5 102t51.5 91t89 64.5t132 24.5q51 0 99.5 -15t83 -46t56 -79 t21.5 -114v-694q0 -59 17.5 -78.5t44.5 -17.5q8 0 19 1t22 3v-37q-20 -4 -29 -4h-21q-41 0 -67.5 24.5t-26.5 112.5v41h-4q-35 -92 -105.5 -147.5t-170.5 -55.5q-129 0 -199 80t-70 221zM100 272q0 -135 68 -197.5t166 -62.5q41 0 89 19.5t89 63.5t68.5 116t27.5 176v240 q-25 -29 -84 -49.5t-192 -47.5q-129 -25 -180.5 -86t-51.5 -172z" />
<glyph unicode="b" d="M104 0v1462h41v-618h7q14 45 37.5 88t57.5 76.5t79 53t104 19.5q94 0 156.5 -41t100.5 -113.5t54.5 -172t16.5 -215.5q0 -293 -90 -428.5t-242 -135.5q-104 0 -173 64.5t-101 187.5h-7v-227h-41zM145 528q0 -264 77 -390t200 -126q88 0 145.5 44t91 119t46 171t12.5 201 q0 102 -13.5 193t-46 159t-88 106.5t-139.5 38.5q-129 0 -207 -125t-78 -391z" />
<glyph unicode="c" horiz-adv-x="757" d="M76 559q0 121 19.5 218t61.5 165t105.5 103.5t151.5 35.5q68 0 123 -26.5t94 -70.5t60.5 -101.5t21.5 -118.5h-41q-2 53 -19.5 103.5t-50.5 90t-80 63t-108 23.5q-63 0 -117.5 -24.5t-94.5 -83.5t-62.5 -158.5t-22.5 -249.5q0 -147 22.5 -246.5t62.5 -159t94 -85 t118 -25.5q74 0 125 34t81.5 84t45 108.5t16.5 105.5h41q-4 -78 -27.5 -145.5t-63.5 -116.5t-95.5 -78t-122.5 -29q-180 0 -259 145.5t-79 438.5z" />
<glyph unicode="d" d="M76 539q0 117 16.5 216t54 171.5t100 113.5t156.5 41q59 0 104.5 -20.5t78 -53t56.5 -75.5t40 -88h6v618h41v-1462h-41v227h-6q-33 -123 -101.5 -187.5t-172.5 -64.5q-152 0 -242 135.5t-90 428.5zM117 547q0 -104 12 -200.5t46 -171.5t90.5 -119t146.5 -44 q123 0 199.5 126t76.5 390q0 266 -78 391t-207 125q-84 0 -139 -38.5t-88 -106.5t-46 -159t-13 -193z" />
<glyph unicode="e" horiz-adv-x="796" d="M76 559q0 121 19.5 218t61.5 165t105.5 103.5t151.5 35.5q92 0 152.5 -37.5t97 -100t52 -145.5t15.5 -173v-74h-614q0 -119 14 -217t48 -170t91.5 -112t143.5 -40q74 0 125 34t81.5 84t45 108.5t16.5 105.5h41q-4 -78 -27.5 -145.5t-63.5 -116.5t-95.5 -78t-122.5 -29 q-180 0 -259 145.5t-79 438.5zM117 588h573v71q0 61 -11 129t-42 124.5t-84 94t-139 37.5q-84 0 -140.5 -37.5t-90 -100t-49 -145.5t-17.5 -173z" />
<glyph unicode="f" horiz-adv-x="378" d="M23 1020v37h137v188q0 45 8 92t37 76q12 12 24.5 21.5t28.5 15.5t40 9t58 3h21q14 0 20 -2v-37q-8 2 -24 2h-27q-80 0 -112.5 -37.5t-32.5 -138.5v-192h180v-37h-180v-1020h-41v1020h-137z" />
<glyph unicode="g" d="M76 545q0 143 23.5 245.5t65.5 167t101.5 94t132.5 29.5q70 0 118 -23.5t80 -58t49.5 -73.5t23.5 -70h4v201h41v-1063q0 -74 -15.5 -141.5t-50.5 -118.5t-95 -81t-148 -30q-43 0 -91.5 10.5t-89.5 40t-68.5 80.5t-31.5 133h41q6 -111 67.5 -169t172.5 -58q125 0 196.5 77 t71.5 259v246h-4q-23 -117 -95.5 -179.5t-189.5 -62.5q-68 0 -124 29.5t-98 94t-64.5 169.5t-22.5 252zM117 555q0 -139 18.5 -237.5t54 -161t86 -91t111.5 -28.5t113.5 23.5t90.5 83t60.5 161t22.5 256.5q0 98 -12.5 186.5t-44 154t-86 104t-136.5 38.5 q-147 0 -212.5 -126.5t-65.5 -362.5z" />
<glyph unicode="h" horiz-adv-x="796" d="M104 0v1462h41v-596h5q6 35 27.5 73t57 69.5t83 52t102.5 20.5q76 0 128 -23.5t84 -66.5t46 -102.5t14 -128.5v-760h-41v756q0 88 -18.5 143t-50 88t-73.5 45t-89 12q-35 0 -82 -15t-90 -57t-73 -114t-30 -184v-674h-41z" />
<glyph unicode="i" horiz-adv-x="266" d="M113 0v1057h41v-1057h-41zM113 1262v200h41v-200h-41z" />
<glyph unicode="j" horiz-adv-x="266" d="M-84 -322q10 -2 31 -2h24q78 0 110 36t32 134v1211h41v-1207q0 -121 -47.5 -165.5t-137.5 -44.5h-26q-20 0 -27 2v36zM113 1262v200h41v-200h-41z" />
<glyph unicode="k" horiz-adv-x="720" d="M104 0v1462h41v-997l500 592h53l-331 -391l391 -666h-47l-373 635l-193 -227v-408h-41z" />
<glyph unicode="l" horiz-adv-x="266" d="M113 0v1462h41v-1462h-41z" />
<glyph unicode="m" horiz-adv-x="1253" d="M113 0v1057h41v-170h4q23 78 87 136t165 58q70 0 112.5 -22.5t67 -55t35 -68.5t14.5 -61h4q8 33 27.5 70t50.5 67.5t74 50t98 19.5q66 0 113 -21.5t76.5 -59t44 -88t14.5 -107.5v-805h-41v805q0 68 -18.5 114t-47 73.5t-63.5 39.5t-68 12q-61 0 -109.5 -26.5t-80 -72.5 t-49 -110.5t-17.5 -140.5v-694h-41v797q0 49 -10 94t-32.5 79t-59.5 54t-92 20q-53 0 -99.5 -22.5t-82 -69.5t-56 -120.5t-20.5 -174.5v-657h-41z" />
<glyph unicode="n" horiz-adv-x="796" d="M104 0v1057h41v-191h5q6 35 27.5 73t57 69.5t83 52t102.5 20.5q76 0 128 -23.5t84 -66.5t46 -102.5t14 -128.5v-760h-41v756q0 88 -18.5 143t-50 88t-73.5 45t-89 12q-35 0 -82 -15t-90 -57t-73 -114t-30 -184v-674h-41z" />
<glyph unicode="o" d="M76 528q0 266 82 409.5t260 143.5q70 0 132 -25.5t108.5 -89t73 -170t26.5 -268.5t-26.5 -268t-73 -169.5t-109 -89.5t-131.5 -26q-178 0 -260 146.5t-82 406.5zM117 528q0 -147 23.5 -246.5t64.5 -159t95 -85t118 -25.5q160 0 229.5 128t69.5 388t-69.5 388t-229.5 128 q-63 0 -118.5 -24.5t-95.5 -85t-63.5 -160t-23.5 -246.5z" />
<glyph unicode="p" d="M104 -360v1417h41v-228h7q33 123 103.5 187.5t174.5 64.5q156 0 242 -132t86 -431q0 -117 -16.5 -216t-54.5 -172t-100.5 -114t-156.5 -41q-59 0 -104 19.5t-79 53.5t-57.5 76t-37.5 89h-7v-573h-41zM145 528q0 -266 78 -391t207 -125q84 0 139.5 39t88 106.5t46 159 t13.5 193.5q0 104 -11.5 200.5t-43 171t-87 118.5t-143.5 44q-131 0 -209 -126t-78 -390z" />
<glyph unicode="q" d="M76 518q0 299 85 431t242 132q104 0 175 -64.5t104 -187.5h6v228h41v-1417h-41v573h-6q-16 -47 -38.5 -89t-56.5 -76t-79 -53.5t-105 -19.5q-94 0 -156.5 41t-100 114t-54 172t-16.5 216zM117 510q0 -102 13 -193.5t46 -159t88 -106.5t139 -39q129 0 207 125t78 391 q0 264 -78 390t-209 126q-88 0 -143 -44t-87 -118.5t-43 -171t-11 -200.5z" />
<glyph unicode="r" horiz-adv-x="454" d="M104 0v1057h41v-191h5q6 35 27.5 73t57 69.5t83 52t102.5 20.5h41v-37h-41q-35 0 -82 -15t-90 -57t-73 -114t-30 -184v-674h-41z" />
<glyph unicode="s" horiz-adv-x="681" d="M51 299v33h41v-39q0 -55 11.5 -106.5t40 -89.5t76.5 -61.5t122 -23.5q68 0 116 23.5t76.5 59.5t42 81t13.5 88q0 84 -38 133t-96.5 81t-125 55.5t-125 57.5t-96 88t-37.5 148q0 53 21.5 101.5t43.5 70.5q43 47 94.5 64.5t110.5 17.5q76 0 127 -25.5t81 -67.5t42 -93 t12 -100v-29h-41v35q0 109 -51 176t-172 67q-111 0 -169 -63t-58 -162q0 -82 37.5 -129t96 -76.5t125 -53t125 -58.5t96.5 -89.5t38 -146.5q0 -59 -18.5 -111.5t-54.5 -92t-89 -63.5t-123 -24q-295 0 -295 324z" />
<glyph unicode="t" horiz-adv-x="378" d="M23 1020v37h137v327h41v-327h180v-37h-180v-854q0 -74 24.5 -101.5t91.5 -27.5q23 0 41.5 1t38.5 5v-37q-23 -4 -44 -5t-38 -1q-72 0 -113.5 34t-41.5 128v858h-137z" />
<glyph unicode="u" horiz-adv-x="796" d="M104 297v760h41v-756q0 -88 18.5 -144.5t50.5 -88t74 -44t89 -12.5q33 0 80 15.5t90 57.5t73.5 113.5t30.5 184.5v674h41v-1057h-41v190h-4q-6 -35 -27.5 -72.5t-57.5 -69.5t-83 -52.5t-102 -20.5q-76 0 -128 24t-84 67t-46.5 101t-14.5 130z" />
<glyph unicode="v" horiz-adv-x="645" d="M6 1057h41l287 -1020h4l260 1020h41l-277 -1057h-53z" />
<glyph unicode="w" horiz-adv-x="1024" d="M23 1057h40l201 -1020h4l215 1020h60l209 -1020h4l205 1020h40l-221 -1057h-55l-211 1020h-4l-215 -1020h-57z" />
<glyph unicode="x" horiz-adv-x="645" d="M29 0l274 543l-266 514h43l246 -473l239 473h41l-260 -514l270 -543h-43l-249 502l-254 -502h-41z" />
<glyph unicode="y" horiz-adv-x="645" d="M4 1057h41l285 -1004h4l268 1004h39l-299 -1100q-25 -94 -47.5 -155.5t-51 -97.5t-66.5 -50t-91 -14q-16 0 -30.5 1t-24.5 3v37q12 -2 28.5 -3.5t32.5 -1.5q70 0 115 39q23 23 51.5 94.5t54.5 182.5z" />
<glyph unicode="z" horiz-adv-x="606" d="M14 0v37l531 983h-510v37h551v-37l-531 -983h537v-37h-578z" />
<glyph unicode="{" horiz-adv-x="417" d="M18 524v37q43 0 71 27.5t44.5 74t22.5 104.5t6 120v342q0 51 6 94t24.5 73.5t51 48t86.5 17.5h110v-37h-110q-41 0 -65.5 -11t-39 -38.5t-18.5 -71.5t-4 -112v-320q0 -92 -13.5 -151t-35 -96t-47 -55.5t-48.5 -26.5q23 -10 48.5 -28.5t47 -54.5t35 -95.5t13.5 -151.5 v-319q0 -68 4 -112t18.5 -71.5t39 -39t65.5 -11.5h110v-37h-110q-53 0 -86 16.5t-51.5 47t-24.5 73.5t-6 97v342q0 61 -6 119.5t-22.5 104.5t-44.5 73.5t-71 27.5z" />
<glyph unicode="|" horiz-adv-x="454" d="M207 -25v1512h41v-1512h-41z" />
<glyph unicode="}" horiz-adv-x="417" d="M-23 -340h111q41 0 65.5 11.5t39 39t18.5 71.5t4 112v319q0 92 13.5 151.5t35 95.5t47 54t47.5 29q-23 8 -48 26.5t-46.5 55.5t-35 96t-13.5 151v320q0 68 -4 112t-18.5 71.5t-39 38.5t-65.5 11h-111v37h111q53 0 86 -17.5t51.5 -48t24.5 -73.5t6 -94v-342 q0 -61 6 -119.5t22.5 -105t44 -74t70.5 -27.5v-37q-43 0 -70.5 -27.5t-44 -73.5t-22.5 -104.5t-6 -119.5v-342q0 -53 -6 -96.5t-24.5 -74t-51.5 -47t-86 -16.5h-111v37z" />
<glyph unicode="~" horiz-adv-x="1228" d="M162 446q57 92 114.5 128t135.5 36q68 0 124 -22.5t107 -48t101.5 -48t103.5 -22.5q35 0 90 36t98 109l31 -26q-49 -78 -112.5 -117t-106.5 -39q-59 0 -111.5 22.5t-103.5 48t-105.5 48t-115.5 22.5q-70 0 -117 -33.5t-105 -117.5z" />
<glyph unicode="&#xa1;" horiz-adv-x="417" d="M188 -336v1090h41v-1090h-41zM188 926v200h41v-200h-41z" />
<glyph unicode="&#xa2;" horiz-adv-x="983" d="M170 528q0 252 76 397.5t243 155.5v170h41v-170q61 -4 112.5 -30.5t88.5 -69.5t56.5 -99.5t19.5 -117.5h-41q-2 51 -17.5 100t-45 88t-72.5 63.5t-101 28.5v-1032q61 8 106.5 40t74 77t44 99.5t17.5 107.5h41q0 -61 -18.5 -121.5t-54 -111t-88 -85t-122.5 -43.5v-188h-41 v188q-166 2 -242.5 146.5t-76.5 406.5zM211 528q0 -145 22.5 -244.5t60.5 -160t88 -86t107 -25.5v1032q-59 -4 -110 -30.5t-88 -87t-58.5 -158t-21.5 -240.5z" />
<glyph unicode="&#xa3;" horiz-adv-x="983" d="M66 16q53 47 99 101.5t81 115t55.5 126t20.5 137.5q0 29 -3.5 51t-7.5 43.5t-11 43t-15 50.5h-211v37h192q-23 45 -49.5 91t-49 94t-37.5 96.5t-15 97.5q0 63 24.5 125.5t74.5 113t125 81t177 30.5q80 0 150.5 -26.5t124 -79t84 -130t30.5 -178.5h-41q-4 113 -32.5 177.5 t-75.5 111.5q-43 41 -104.5 64.5t-139.5 23.5q-90 0 -156.5 -27.5t-111.5 -72.5t-66.5 -100.5t-21.5 -112.5q0 -43 16 -92.5t40 -98.5t51.5 -97t49.5 -91h254v-37h-241q16 -47 26 -91t10 -95q0 -66 -18 -128.5t-49 -119.5t-71 -109.5t-83 -97.5l4 -2q31 18 70 33.5t82 15.5 q55 0 95 -13l75 -26l70 -25q35 -13 81 -14q51 0 95.5 13.5t82.5 34t68 43.5l56 44l22 -28q-70 -63 -142.5 -103.5t-166.5 -40.5q-35 0 -81 12.5l-93 26.5l-83 26q-42 13 -75 13q-68 0 -109.5 -22.5t-93.5 -55.5z" />
<glyph unicode="&#xa4;" horiz-adv-x="983" d="M61 713q0 86 30 157.5t83 130.5l-78 78l29 29l80 -80q57 53 129 84t158 31t159.5 -31t126.5 -84l80 80l29 -29l-78 -78q53 -59 83 -130.5t30 -157.5t-31 -158t-84 -129l80 -80l-29 -29l-78 78q-57 -53 -129.5 -82.5t-158.5 -29.5t-158 30.5t-129 83.5l-80 -80l-29 29 l78 78q-53 59 -83 131t-30 158zM102 713q0 -80 31 -152t83 -124t124 -82.5t152 -30.5t151.5 30.5t123.5 82.5t83 124t31 152t-31 151.5t-83 123.5t-124 83t-151 31q-80 0 -152 -31t-124 -83t-83 -123.5t-31 -151.5z" />
<glyph unicode="&#xa5;" horiz-adv-x="983" d="M68 1425h41l380 -763h5l380 763h41l-380 -770h290v-37h-313v-204h313v-37h-313v-377h-41v377h-313v37h313v204h-313v37h291z" />
<glyph unicode="&#xa6;" horiz-adv-x="454" d="M207 -25v547h41v-547h-41zM207 940v547h41v-547h-41z" />
<glyph unicode="&#xa7;" horiz-adv-x="985" d="M90 705q0 111 59.5 180t163.5 121q-47 39 -78.5 91t-31.5 105q0 70 25.5 123t68.5 89t97.5 54.5t111.5 18.5q63 0 118.5 -16.5t97.5 -51.5t66.5 -93t26.5 -140h-41q0 123 -68.5 193.5t-193.5 70.5q-55 0 -103.5 -16.5t-85 -48t-58 -76.5t-21.5 -103q0 -66 48 -122 t120.5 -109t156.5 -104.5t157 -110t121 -126t48 -149.5q0 -92 -49 -161.5t-166 -128.5q57 -49 96 -105.5t39 -130.5q0 -66 -25.5 -117t-69.5 -87t-100.5 -55t-117.5 -19q-59 0 -117.5 18t-105 58t-75 102.5t-28.5 152.5v21h41v-19q0 -88 28.5 -145t70.5 -91t91.5 -47.5 t90.5 -13.5q49 0 98 14.5t89 44t64.5 72.5t24.5 101q0 53 -21.5 99t-58.5 81q-39 37 -112 89l-153 106l-147 102q-69 49 -98 80q-47 51 -70.5 92t-23.5 107zM131 700q0 -61 48 -125.5t171 -150.5l301 -203q98 45 150.5 108.5t52.5 141.5q0 84 -43 146.5t-137 134.5l-332 227 q-111 -53 -161 -117t-50 -162z" />
<glyph unicode="&#xa8;" horiz-adv-x="266" d="M-16 1247v211h41v-211h-41zM242 1247v211h41v-211h-41z" />
<glyph unicode="&#xa9;" horiz-adv-x="1638" d="M63 731q0 156 59.5 294t162 240.5t240 162t294.5 59.5q156 0 294 -59.5t240.5 -162t162 -240.5t59.5 -294q0 -158 -59.5 -295t-162 -239.5t-240.5 -162t-294 -59.5q-158 0 -295 59.5t-239.5 162t-162 239.5t-59.5 295zM104 731q0 -150 56.5 -281t153 -228t227.5 -153.5 t278 -56.5t278.5 56.5t227.5 153.5t152.5 228.5t56.5 280.5q0 150 -56.5 281t-152.5 228t-227 153.5t-279 56.5q-147 0 -278 -56.5t-227.5 -153.5t-153 -228t-56.5 -281zM379 731q0 111 30.5 200t90 151.5t143.5 96t193 33.5q156 0 262 -80.5t127 -234.5h-41 q-23 141 -117 210t-231 69q-203 0 -309.5 -120t-106.5 -325q0 -96 28.5 -178t82 -141.5t130 -93t175.5 -33.5q147 0 236 74.5t112 215.5h41q-20 -147 -122 -237t-267 -90q-104 0 -188.5 35.5t-145 100.5t-92 153t-31.5 194z" />
<glyph unicode="&#xaa;" horiz-adv-x="491" d="M31 967q0 80 47 120.5t119 55.5l72 13q38 7 67 15q29 10 42 31t17 70q-4 35 -10 56.5t-23 39.5q-16 23 -45.5 34t-62.5 11q-57 0 -89 -19.5t-46.5 -45t-17.5 -52t-3 -41.5h-41v29q0 29 11.5 58.5t36 53t61.5 39t88 15.5q68 0 122 -41t54 -119v-405q0 -33 7 -42t24 -9 q8 0 14 1t14 3v-37q-10 -2 -19 -3t-19 -1q-23 0 -35.5 11t-18.5 28.5t-7 37t-1 35.5h-4q-8 -59 -54 -93t-116 -34q-92 0 -138 48.5t-46 136.5zM72 965q0 -74 43 -110t102 -36q25 0 54.5 10.5t56 35t44 65.5t17.5 102v135h-4q-8 -18 -45 -30.5t-125 -28.5q-78 -14 -110.5 -49 t-32.5 -94z" />
<glyph unicode="&#xab;" horiz-adv-x="645" d="M121 537v41l201 268v-60l-172 -229l172 -229v-60zM324 537v41l200 268v-60l-172 -229l172 -229v-60z" />
<glyph unicode="&#xac;" horiz-adv-x="1228" d="M96 698v37h1037v-514h-41v477h-996z" />
<glyph unicode="&#xad;" horiz-adv-x="606" d="M133 539v36h340v-36h-340z" />
<glyph unicode="&#xae;" horiz-adv-x="1638" d="M63 731q0 156 59.5 294t162 240.5t240 162t294.5 59.5q156 0 294 -59.5t240.5 -162t162 -240.5t59.5 -294q0 -158 -59.5 -295t-162 -239.5t-240.5 -162t-294 -59.5q-158 0 -295 59.5t-239.5 162t-162 239.5t-59.5 295zM104 731q0 -150 56.5 -281t153 -228t227.5 -153.5 t278 -56.5t278.5 56.5t227.5 153.5t152.5 228.5t56.5 280.5q0 150 -56.5 281t-152.5 228t-227 153.5t-279 56.5q-147 0 -278 -56.5t-227.5 -153.5t-153 -228t-56.5 -281zM520 279v905h359q147 0 211.5 -66.5t64.5 -183.5q0 -115 -67.5 -169t-161.5 -69l270 -417h-53 l-271 417h-311v-417h-41zM561 733h305q41 0 85 7.5t80 30t59.5 61t23.5 104.5t-21.5 106.5t-54 64t-72.5 32t-77 8.5h-328v-414z" />
<glyph unicode="&#xaf;" horiz-adv-x="266" d="M-63 1333v37h393v-37h-393z" />
<glyph unicode="&#xb0;" horiz-adv-x="819" d="M117 1157q0 61 22.5 114.5t62.5 93.5t93 62.5t115 22.5q61 0 114.5 -22.5t93 -62.5t62 -93t22.5 -115q0 -61 -22.5 -114.5t-62 -93.5t-93 -62.5t-114.5 -22.5t-114.5 22.5t-93.5 62.5t-62.5 93.5t-22.5 114.5zM158 1157q0 -53 19.5 -98t54 -80t79.5 -54.5t99 -19.5 q51 0 97 19.5t81 54.5t54.5 80t19.5 98q0 51 -19.5 97t-54.5 81t-81 54.5t-97 19.5q-53 0 -98.5 -19.5t-80 -54.5t-54 -81t-19.5 -97z" />
<glyph unicode="&#xb1;" horiz-adv-x="1228" d="M96 0v37h1037v-37h-1037zM96 588v37h498v411h41v-411h498v-37h-498v-412h-41v412h-498z" />
<glyph unicode="&#xb2;" horiz-adv-x="638" d="M61 573q0 90 25 143.5t68 104.5q16 20 60 52l92 64l90 59q42 28 55 40q45 45 65.5 86t20.5 101q0 82 -51.5 136t-155.5 54q-57 0 -98.5 -19.5t-68 -51t-39.5 -72.5t-13 -84h-41q0 57 19.5 106t53 84t80.5 54.5t105 19.5q113 0 181.5 -61.5t68.5 -171.5q0 -76 -35 -129.5 t-88.5 -96.5t-114.5 -80t-114.5 -78.5t-88.5 -95t-35 -127.5h476v-37h-517z" />
<glyph unicode="&#xb3;" horiz-adv-x="638" d="M53 801h41q0 -94 62.5 -149.5t150.5 -55.5q117 0 177.5 64.5t60.5 162.5q0 55 -23.5 93t-62.5 60.5t-87 32t-100 7.5v37h31q92 0 151.5 43t59.5 135q0 88 -55.5 135t-141.5 47q-37 0 -73.5 -11t-67.5 -33.5t-49 -60.5t-18 -89h-41q0 111 66.5 171t182.5 60 q117 0 177.5 -58.5t60.5 -158.5q0 -96 -50 -141t-118 -58v-4q100 -16 149.5 -71.5t49.5 -141.5q0 -63 -20.5 -112.5t-53.5 -77.5q-37 -35 -83 -51.5t-130 -16.5q-106 0 -176 65.5t-70 176.5z" />
<glyph unicode="&#xb4;" horiz-adv-x="266" d="M57 1210l170 285h41l-170 -285h-41z" />
<glyph unicode="&#xb5;" horiz-adv-x="796" d="M104 297v760h41v-756q0 -88 18.5 -144.5t50.5 -88t74 -44t89 -12.5q33 0 80 15.5t90 57.5t73.5 113.5t30.5 184.5v674h41v-1057h-41v190h-4q-6 -35 -27.5 -72.5t-57.5 -69.5t-83 -52.5t-102 -20.5q-98 0 -154.5 39t-72.5 105h-5v-479h-41v657z" />
<glyph unicode="&#xb6;" horiz-adv-x="1228" d="M129 1061q0 199 119 300t330 101h399v-1757h-41v1720h-358v-1720h-41v959q-84 0 -158 31.5t-129 86t-88 127t-33 152.5zM170 1061q0 -74 29.5 -139.5t80 -114.5t117 -78t140.5 -29v725q-80 0 -147.5 -23.5t-116 -69.5t-76 -114.5t-27.5 -156.5z" />
<glyph unicode="&#xb7;" horiz-adv-x="491" d="M170 705q0 31 22.5 53t53.5 22t53.5 -22.5t22.5 -52.5q0 -31 -23 -53.5t-53 -22.5q-31 0 -53.5 22.5t-22.5 53.5z" />
<glyph unicode="&#xb8;" horiz-adv-x="266" d="M-43 -346l16 35q23 -12 59 -23.5t83 -11.5q70 0 111.5 32.5t41.5 80.5q0 88 -108 88q-53 0 -79 -10.5t-44 -26.5l-17 20l115 162h41l-82 -117l4 -4q20 8 33.5 10t36.5 2q53 0 97 -29.5t44 -90.5q0 -25 -11 -51.5t-34.5 -49t-59.5 -38t-85 -15.5q-47 0 -95.5 11.5 t-66.5 25.5z" />
<glyph unicode="&#xb9;" horiz-adv-x="638" d="M109 1264v36q70 12 127 54.5t96 95.5h53v-877h-41v840h-4q-14 -27 -42 -52.5t-60.5 -46t-67 -34.5t-61.5 -16z" />
<glyph unicode="&#xba;" horiz-adv-x="641" d="M90 1116q0 160 54.5 247t177.5 87q49 0 91 -15.5t72.5 -53.5t48 -102.5t17.5 -162.5t-17.5 -162.5t-48 -102.5t-72.5 -53.5t-91 -15.5q-123 0 -177.5 87t-54.5 247zM131 1116q0 -84 15.5 -141t41 -92t60.5 -49.5t74 -14.5q98 0 143 75t45 222t-45 222t-143 75 q-39 0 -74 -14.5t-60.5 -49t-41 -92t-15.5 -141.5z" />
<glyph unicode="&#xbb;" horiz-adv-x="645" d="M121 262v55l172 240l-172 240v55h4l197 -274v-41l-197 -275h-4zM324 262v55l172 240l-172 240v55h4l196 -274v-41l-196 -275h-4z" />
<glyph unicode="&#xbc;" horiz-adv-x="1476" d="M72 1264v36q70 12 127 54.5t96 95.5h53v-877h-41v840h-4q-14 -27 -42 -52.5t-60.5 -46t-67 -34.5t-61.5 -16zM166 -61l981 1548h41l-981 -1548h-41zM770 229v37l401 611h60v-611h102v-37h-102v-229h-41v229h-420zM811 266h379v574h-4z" />
<glyph unicode="&#xbd;" horiz-adv-x="1476" d="M72 1264v36q70 12 127 54.5t96 95.5h53v-877h-41v840h-4q-14 -27 -42 -52.5t-60.5 -46t-67 -34.5t-61.5 -16zM145 -61l981 1548h41l-981 -1548h-41zM879 0q0 90 24.5 143.5t67.5 104.5q16 20 60 52l92 64l90 59q42 28 55 40q45 45 65.5 86t20.5 100q0 82 -51.5 136.5 t-155.5 54.5q-57 0 -98 -19.5t-68 -51.5t-40 -73t-13 -84h-41q0 57 19.5 106.5t53 84.5t80.5 54.5t105 19.5q113 0 181.5 -61.5t68.5 -172.5q0 -76 -35 -129t-88 -96t-114.5 -80t-115 -79t-88 -95t-34.5 -127h475v-37h-516z" />
<glyph unicode="&#xbe;" horiz-adv-x="1476" d="M68 801h41q0 -94 62 -149.5t151 -55.5q117 0 177 64.5t60 162.5q0 55 -23.5 93t-62.5 60.5t-87 32t-99 7.5v37h30q92 0 151.5 43t59.5 135q0 88 -55 135t-141 47q-37 0 -74 -11t-67.5 -33.5t-49 -60.5t-18.5 -89h-41q0 111 66.5 171t183.5 60t177 -58.5t60 -158.5 q0 -96 -50 -141t-118 -58v-4q100 -16 149.5 -71.5t49.5 -141.5q0 -63 -20.5 -112.5t-53.5 -77.5q-37 -35 -83 -51.5t-130 -16.5q-106 0 -175.5 65.5t-69.5 176.5zM299 -61l981 1548h41l-981 -1548h-41zM842 229v37l401 611h60v-611h102v-37h-102v-229h-41v229h-420zM883 266 h379v574h-5z" />
<glyph unicode="&#xbf;" d="M63 -43q0 51 9.5 96t33 89t61.5 90.5t97 103.5q45 43 75 78t48.5 68.5t25.5 70.5t7 86v115h41v-138q0 -74 -26.5 -128t-65.5 -101t-86 -90t-86 -92t-66 -109.5t-27 -140.5q0 -72 26 -124t68 -86t96 -51.5t114 -17.5q55 0 112.5 19.5t103.5 63.5t75.5 114t29.5 170v47h41 v-45q0 -100 -29.5 -176t-80 -127t-116 -76.5t-136.5 -25.5q-82 0 -145.5 24.5t-107.5 66.5t-68 100t-24 126zM420 926v200h41v-200h-41z" />
<glyph unicode="&#xc0;" horiz-adv-x="985" d="M4 0l465 1462h49l463 -1462h-41l-149 475h-596l-150 -475h-41zM207 512h573l-284 913h-4zM307 1851h41l170 -285h-41z" />
<glyph unicode="&#xc1;" horiz-adv-x="985" d="M4 0l465 1462h49l463 -1462h-41l-149 475h-596l-150 -475h-41zM207 512h573l-284 913h-4zM469 1566l170 285h41l-170 -285h-41z" />
<glyph unicode="&#xc2;" horiz-adv-x="985" d="M4 0l465 1462h49l463 -1462h-41l-149 475h-596l-150 -475h-41zM207 512h573l-284 913h-4zM284 1566l180 285h58l180 -285h-41l-168 256l-168 -256h-41z" />
<glyph unicode="&#xc3;" horiz-adv-x="985" d="M4 0l465 1462h49l463 -1462h-41l-149 475h-596l-150 -475h-41zM207 512h573l-284 913h-4zM266 1630q2 23 9 49.5t21.5 50t37 38.5t53.5 15q35 0 61.5 -18t50 -39.5t46 -40t51.5 -18.5q41 0 59 33.5t24 87.5h41q-4 -23 -10 -50.5t-20.5 -51t-37 -40t-56.5 -16.5 q-31 0 -61 18.5t-56 39.5l-50 40q-24 18 -44 19q-33 0 -50.5 -34t-27.5 -83h-41z" />
<glyph unicode="&#xc4;" horiz-adv-x="985" d="M4 0l465 1462h49l463 -1462h-41l-149 475h-596l-150 -475h-41zM207 512h573l-284 913h-4zM344 1603v211h41v-211h-41zM602 1603v211h41v-211h-41z" />
<glyph unicode="&#xc5;" horiz-adv-x="985" d="M4 0l465 1462h49l463 -1462h-41l-149 475h-596l-150 -475h-41zM207 512h573l-284 913h-4zM319 1691q0 72 51 123.5t123 51.5t123 -51.5t51 -123.5q0 -74 -51 -124t-123 -50q-74 0 -124 50t-50 124zM360 1691q0 -59 39 -98t94 -39t94 39t39 98t-39 98.5t-94 39.5 t-94 -39.5t-39 -98.5z" />
<glyph unicode="&#xc6;" horiz-adv-x="1402" d="M-14 0l657 1462h713v-37h-635v-643h592v-37h-592v-708h665v-37h-706v475h-440l-213 -475h-41zM256 512h424v913h-14z" />
<glyph unicode="&#xc7;" horiz-adv-x="1024" d="M78 731q0 135 19.5 270.5t71.5 243t142 175t234 67.5q117 0 193.5 -44t122.5 -110.5t66.5 -143.5t24.5 -145h-41q-4 84 -27.5 158t-68.5 129t-111.5 87t-156.5 32q-127 0 -210 -60.5t-131 -160t-67.5 -229.5t-19.5 -269t19.5 -269t67.5 -229.5t131 -160t210 -60.5 q115 0 187.5 52.5t114.5 127t60.5 155.5t24.5 138h41q-10 -94 -37 -184t-77 -161.5t-127 -117t-187 -47.5l-64 -92l4 -4q20 8 34 10t36 2q53 0 97 -29.5t44 -90.5q0 -25 -11 -51.5t-34.5 -49t-59.5 -38t-85 -15.5q-47 0 -95 11.5t-67 25.5l16 35q23 -12 59 -23.5t83 -11.5 q70 0 111.5 32.5t41.5 80.5q0 88 -108 88q-53 0 -79 -10.5t-44 -26.5l-16 20l98 139q-123 10 -197 66q-70 47 -114.5 123t-71.5 168t-37 193.5t-10 203.5z" />
<glyph unicode="&#xc8;" d="M119 0v1462h665v-37h-624v-643h579v-37h-579v-708h641v-37h-682zM303 1851h41l170 -285h-41z" />
<glyph unicode="&#xc9;" d="M119 0v1462h665v-37h-624v-643h579v-37h-579v-708h641v-37h-682zM417 1566l170 285h41l-170 -285h-41z" />
<glyph unicode="&#xca;" d="M119 0v1462h665v-37h-624v-643h579v-37h-579v-708h641v-37h-682zM248 1566l180 285h58l180 -285h-41l-168 256l-168 -256h-41z" />
<glyph unicode="&#xcb;" d="M119 0v1462h665v-37h-624v-643h579v-37h-579v-708h641v-37h-682zM310 1603v211h41v-211h-41zM568 1603v211h41v-211h-41z" />
<glyph unicode="&#xcc;" horiz-adv-x="303" d="M131 0v1462h41v-1462h-41zM-37 1851h41l170 -285h-41z" />
<glyph unicode="&#xcd;" horiz-adv-x="303" d="M131 0v1462h41v-1462h-41zM129 1566l170 285h41l-170 -285h-41z" />
<glyph unicode="&#xce;" horiz-adv-x="303" d="M131 0v1462h41v-1462h-41zM-58 1566l180 285h58l180 -285h-41l-168 256l-168 -256h-41z" />
<glyph unicode="&#xcf;" horiz-adv-x="303" d="M131 0v1462h41v-1462h-41zM2 1603v211h41v-211h-41zM260 1603v211h41v-211h-41z" />
<glyph unicode="&#xd0;" horiz-adv-x="1024" d="M0 745v37h119v680h352q143 0 236.5 -55t145.5 -151.5t72.5 -225.5t20.5 -274q0 -225 -41 -371.5t-112.5 -231.5t-170 -119t-212.5 -34h-291v745h-119zM160 37h272q246 0 359.5 185.5t113.5 533.5q0 166 -22.5 290.5t-74.5 208.5t-139 127t-214 43h-295v-643h364v-37h-364 v-708z" />
<glyph unicode="&#xd1;" horiz-adv-x="1024" d="M109 0v1462h67l694 -1396h4v1396h41v-1462h-59l-702 1425h-4v-1425h-41zM293 1630q2 23 9 49.5t21.5 50t37 38.5t53.5 15q35 0 61.5 -18t50 -39.5t46 -40t51.5 -18.5q41 0 59 33.5t24 87.5h41q-4 -23 -10 -50.5t-20.5 -51t-37 -40t-56.5 -16.5q-31 0 -61 18.5t-56 39.5 l-50 40q-24 18 -44 19q-33 0 -50.5 -34t-27.5 -83h-41z" />
<glyph unicode="&#xd2;" horiz-adv-x="1099" d="M78 731q0 135 20.5 270.5t72.5 243t143.5 175t230.5 67.5q115 0 195.5 -43t134 -110.5t83 -152.5t44 -169t17.5 -159t3 -122t-2 -121.5t-15.5 -158.5t-41 -169t-78.5 -153t-131 -111t-195 -43q-143 0 -236.5 68t-147.5 175.5t-75.5 242.5t-21.5 270zM119 731 q0 -139 19.5 -269t67.5 -229.5t131 -160t210 -60.5q125 0 209 57.5t134 155t70.5 228.5t20.5 278t-20.5 278.5t-70.5 228.5t-134 154.5t-209 57.5q-127 0 -210 -60.5t-131 -160t-67.5 -229.5t-19.5 -269zM383 1851h41l170 -285h-41z" />
<glyph unicode="&#xd3;" horiz-adv-x="1099" d="M78 731q0 135 20.5 270.5t72.5 243t143.5 175t230.5 67.5q115 0 195.5 -43t134 -110.5t83 -152.5t44 -169t17.5 -159t3 -122t-2 -121.5t-15.5 -158.5t-41 -169t-78.5 -153t-131 -111t-195 -43q-143 0 -236.5 68t-147.5 175.5t-75.5 242.5t-21.5 270zM119 731 q0 -139 19.5 -269t67.5 -229.5t131 -160t210 -60.5q125 0 209 57.5t134 155t70.5 228.5t20.5 278t-20.5 278.5t-70.5 228.5t-134 154.5t-209 57.5q-127 0 -210 -60.5t-131 -160t-67.5 -229.5t-19.5 -269zM524 1566l170 285h41l-170 -285h-41z" />
<glyph unicode="&#xd4;" horiz-adv-x="1099" d="M78 731q0 135 20.5 270.5t72.5 243t143.5 175t230.5 67.5q115 0 195.5 -43t134 -110.5t83 -152.5t44 -169t17.5 -159t3 -122t-2 -121.5t-15.5 -158.5t-41 -169t-78.5 -153t-131 -111t-195 -43q-143 0 -236.5 68t-147.5 175.5t-75.5 242.5t-21.5 270zM119 731 q0 -139 19.5 -269t67.5 -229.5t131 -160t210 -60.5q125 0 209 57.5t134 155t70.5 228.5t20.5 278t-20.5 278.5t-70.5 228.5t-134 154.5t-209 57.5q-127 0 -210 -60.5t-131 -160t-67.5 -229.5t-19.5 -269zM338 1566l180 285h58l180 -285h-41l-168 256l-168 -256h-41z" />
<glyph unicode="&#xd5;" horiz-adv-x="1099" d="M78 731q0 135 20.5 270.5t72.5 243t143.5 175t230.5 67.5q115 0 195.5 -43t134 -110.5t83 -152.5t44 -169t17.5 -159t3 -122t-2 -121.5t-15.5 -158.5t-41 -169t-78.5 -153t-131 -111t-195 -43q-143 0 -236.5 68t-147.5 175.5t-75.5 242.5t-21.5 270zM119 731 q0 -139 19.5 -269t67.5 -229.5t131 -160t210 -60.5q125 0 209 57.5t134 155t70.5 228.5t20.5 278t-20.5 278.5t-70.5 228.5t-134 154.5t-209 57.5q-127 0 -210 -60.5t-131 -160t-67.5 -229.5t-19.5 -269zM320 1630q2 23 9 49.5t21.5 50t37 38.5t53.5 15q35 0 61.5 -18 t50 -39.5t46 -40t51.5 -18.5q41 0 59 33.5t24 87.5h41q-4 -23 -10 -50.5t-20.5 -51t-37 -40t-56.5 -16.5q-31 0 -61 18.5t-56 39.5l-50 40q-24 18 -44 19q-33 0 -50.5 -34t-27.5 -83h-41z" />
<glyph unicode="&#xd6;" horiz-adv-x="1099" d="M78 731q0 135 20.5 270.5t72.5 243t143.5 175t230.5 67.5q115 0 195.5 -43t134 -110.5t83 -152.5t44 -169t17.5 -159t3 -122t-2 -121.5t-15.5 -158.5t-41 -169t-78.5 -153t-131 -111t-195 -43q-143 0 -236.5 68t-147.5 175.5t-75.5 242.5t-21.5 270zM119 731 q0 -139 19.5 -269t67.5 -229.5t131 -160t210 -60.5q125 0 209 57.5t134 155t70.5 228.5t20.5 278t-20.5 278.5t-70.5 228.5t-134 154.5t-209 57.5q-127 0 -210 -60.5t-131 -160t-67.5 -229.5t-19.5 -269zM394 1603v211h41v-211h-41zM652 1603v211h41v-211h-41z" />
<glyph unicode="&#xd7;" horiz-adv-x="1228" d="M162 88l430 428l-430 430l22 25l430 -430l430 430l23 -25l-430 -430l430 -428l-25 -22l-428 428l-428 -428z" />
<glyph unicode="&#xd8;" horiz-adv-x="1099" d="M78 731q0 135 20.5 270.5t72.5 243t143.5 175t230.5 67.5q162 0 260 -86l55 133l37 -14l-61 -146q68 -66 104.5 -153.5t55 -180t22.5 -175.5t4 -134q0 -47 -3 -121.5t-17.5 -158.5t-44 -169t-83 -153t-134.5 -111t-195 -43q-82 0 -145.5 24t-112.5 64l-58 -135l-36 17 l61 147q-53 55 -87 128t-54.5 157t-27.5 174t-7 180zM119 731q0 -88 7 -174t25.5 -164t47 -144.5t71.5 -115.5l521 1235q-45 39 -105.5 60.5t-138.5 21.5q-127 0 -210 -60.5t-131 -160t-67.5 -229.5t-19.5 -269zM303 102q45 -43 105.5 -66.5t138.5 -23.5q125 0 209 57.5 t134 155t70.5 228.5t20.5 278q0 193 -36 352.5t-124 253.5z" />
<glyph unicode="&#xd9;" horiz-adv-x="985" d="M100 395v1067h41v-1061q0 -66 12.5 -134t50.5 -124.5t106.5 -93.5t181.5 -37t182 37t107 93.5t50.5 125t12.5 133.5v1061h41v-1067q0 -205 -101.5 -312.5t-291.5 -107.5q-186 0 -289 107.5t-103 312.5zM332 1851h41l170 -285h-41z" />
<glyph unicode="&#xda;" horiz-adv-x="985" d="M100 395v1067h41v-1061q0 -66 12.5 -134t50.5 -124.5t106.5 -93.5t181.5 -37t182 37t107 93.5t50.5 125t12.5 133.5v1061h41v-1067q0 -205 -101.5 -312.5t-291.5 -107.5q-186 0 -289 107.5t-103 312.5zM469 1566l170 285h41l-170 -285h-41z" />
<glyph unicode="&#xdb;" horiz-adv-x="985" d="M100 395v1067h41v-1061q0 -66 12.5 -134t50.5 -124.5t106.5 -93.5t181.5 -37t182 37t107 93.5t50.5 125t12.5 133.5v1061h41v-1067q0 -205 -101.5 -312.5t-291.5 -107.5q-186 0 -289 107.5t-103 312.5zM284 1566l180 285h58l180 -285h-41l-168 256l-168 -256h-41z" />
<glyph unicode="&#xdc;" horiz-adv-x="985" d="M100 395v1067h41v-1061q0 -66 12.5 -134t50.5 -124.5t106.5 -93.5t181.5 -37t182 37t107 93.5t50.5 125t12.5 133.5v1061h41v-1067q0 -205 -101.5 -312.5t-291.5 -107.5q-186 0 -289 107.5t-103 312.5zM340 1603v211h41v-211h-41zM598 1603v211h41v-211h-41z" />
<glyph unicode="&#xdd;" horiz-adv-x="872" d="M6 1462h43l387 -803l389 803h41l-409 -846v-616h-41v616zM411 1566l170 285h41l-170 -285h-41z" />
<glyph unicode="&#xde;" horiz-adv-x="948" d="M119 0v1462h41v-295h360q74 0 138.5 -26.5t111.5 -75.5t73.5 -122t26.5 -165q0 -111 -35.5 -188.5t-92 -125.5t-128 -69.5t-143.5 -21.5h-311v-373h-41zM160 410h315q57 0 120.5 17t115 59t85 114t33.5 180q0 76 -20.5 139.5t-60 110.5t-100 73.5t-140.5 26.5h-348v-720z " />
<glyph unicode="&#xdf;" d="M104 0v1128q0 70 18.5 130.5t55.5 105.5t93.5 71.5t134.5 26.5q135 0 218 -79.5t83 -239.5q0 -106 -50.5 -186t-148.5 -113v-4q74 -14 126 -49t85 -86.5t48 -117t15 -138.5q0 -96 -24.5 -180.5t-72.5 -147t-120.5 -98t-169.5 -35.5q-23 0 -43 1t-37 5v37q37 -6 88 -6 q82 0 145.5 32.5t106.5 90t64.5 134t21.5 167.5q0 102 -26.5 172.5t-75.5 114.5t-119.5 63.5t-159.5 19.5h-30v37h24q86 0 145.5 22.5t96.5 62.5t53.5 92t16.5 114q0 135 -70 206.5t-186 71.5q-74 0 -125.5 -25.5t-82 -67.5t-44 -96t-13.5 -112v-1124h-41z" />
<glyph unicode="&#xe0;" horiz-adv-x="757" d="M59 276q0 129 68 195t184 88q53 10 112.5 23.5t102.5 29.5q45 14 63.5 51t18.5 128q0 70 -9 106.5t-32 67.5q-27 35 -74 57t-104 22q-92 0 -142 -32.5t-73.5 -77.5t-28 -92t-4.5 -78h-41v35q0 51 16.5 102t51.5 91t89 64.5t132 24.5q51 0 99.5 -15t83 -46t56 -79 t21.5 -114v-694q0 -59 17.5 -78.5t44.5 -17.5q8 0 19 1t22 3v-37q-20 -4 -29 -4h-21q-41 0 -67.5 24.5t-26.5 112.5v41h-4q-35 -92 -105.5 -147.5t-170.5 -55.5q-129 0 -199 80t-70 221zM100 272q0 -135 68 -197.5t166 -62.5q41 0 89 19.5t89 63.5t68.5 116t27.5 176v240 q-25 -29 -84 -49.5t-192 -47.5q-129 -25 -180.5 -86t-51.5 -172zM205 1495h41l170 -285h-41z" />
<glyph unicode="&#xe1;" horiz-adv-x="757" d="M59 276q0 129 68 195t184 88q53 10 112.5 23.5t102.5 29.5q45 14 63.5 51t18.5 128q0 70 -9 106.5t-32 67.5q-27 35 -74 57t-104 22q-92 0 -142 -32.5t-73.5 -77.5t-28 -92t-4.5 -78h-41v35q0 51 16.5 102t51.5 91t89 64.5t132 24.5q51 0 99.5 -15t83 -46t56 -79 t21.5 -114v-694q0 -59 17.5 -78.5t44.5 -17.5q8 0 19 1t22 3v-37q-20 -4 -29 -4h-21q-41 0 -67.5 24.5t-26.5 112.5v41h-4q-35 -92 -105.5 -147.5t-170.5 -55.5q-129 0 -199 80t-70 221zM100 272q0 -135 68 -197.5t166 -62.5q41 0 89 19.5t89 63.5t68.5 116t27.5 176v240 q-25 -29 -84 -49.5t-192 -47.5q-129 -25 -180.5 -86t-51.5 -172zM366 1210l170 285h41l-170 -285h-41z" />
<glyph unicode="&#xe2;" horiz-adv-x="757" d="M59 276q0 129 68 195t184 88q53 10 112.5 23.5t102.5 29.5q45 14 63.5 51t18.5 128q0 70 -9 106.5t-32 67.5q-27 35 -74 57t-104 22q-92 0 -142 -32.5t-73.5 -77.5t-28 -92t-4.5 -78h-41v35q0 51 16.5 102t51.5 91t89 64.5t132 24.5q51 0 99.5 -15t83 -46t56 -79 t21.5 -114v-694q0 -59 17.5 -78.5t44.5 -17.5q8 0 19 1t22 3v-37q-20 -4 -29 -4h-21q-41 0 -67.5 24.5t-26.5 112.5v41h-4q-35 -92 -105.5 -147.5t-170.5 -55.5q-129 0 -199 80t-70 221zM100 272q0 -135 68 -197.5t166 -62.5q41 0 89 19.5t89 63.5t68.5 116t27.5 176v240 q-25 -29 -84 -49.5t-192 -47.5q-129 -25 -180.5 -86t-51.5 -172zM180 1210l180 285h58l180 -285h-41l-168 256l-168 -256h-41z" />
<glyph unicode="&#xe3;" horiz-adv-x="757" d="M59 276q0 129 68 195t184 88q53 10 112.5 23.5t102.5 29.5q45 14 63.5 51t18.5 128q0 70 -9 106.5t-32 67.5q-27 35 -74 57t-104 22q-92 0 -142 -32.5t-73.5 -77.5t-28 -92t-4.5 -78h-41v35q0 51 16.5 102t51.5 91t89 64.5t132 24.5q51 0 99.5 -15t83 -46t56 -79 t21.5 -114v-694q0 -59 17.5 -78.5t44.5 -17.5q8 0 19 1t22 3v-37q-20 -4 -29 -4h-21q-41 0 -67.5 24.5t-26.5 112.5v41h-4q-35 -92 -105.5 -147.5t-170.5 -55.5q-129 0 -199 80t-70 221zM100 272q0 -135 68 -197.5t166 -62.5q41 0 89 19.5t89 63.5t68.5 116t27.5 176v240 q-25 -29 -84 -49.5t-192 -47.5q-129 -25 -180.5 -86t-51.5 -172zM152 1274q2 23 9 49.5t21.5 50t37 38.5t53.5 15q35 0 61.5 -18t50 -39.5t46 -40t51.5 -18.5q41 0 59 33.5t24 87.5h41q-4 -23 -10 -50.5t-20.5 -51t-37 -40t-56.5 -16.5q-31 0 -61 18.5t-56 39.5l-50 40 q-24 18 -44 19q-33 0 -50.5 -34t-27.5 -83h-41z" />
<glyph unicode="&#xe4;" horiz-adv-x="757" d="M59 276q0 129 68 195t184 88q53 10 112.5 23.5t102.5 29.5q45 14 63.5 51t18.5 128q0 70 -9 106.5t-32 67.5q-27 35 -74 57t-104 22q-92 0 -142 -32.5t-73.5 -77.5t-28 -92t-4.5 -78h-41v35q0 51 16.5 102t51.5 91t89 64.5t132 24.5q51 0 99.5 -15t83 -46t56 -79 t21.5 -114v-694q0 -59 17.5 -78.5t44.5 -17.5q8 0 19 1t22 3v-37q-20 -4 -29 -4h-21q-41 0 -67.5 24.5t-26.5 112.5v41h-4q-35 -92 -105.5 -147.5t-170.5 -55.5q-129 0 -199 80t-70 221zM100 272q0 -135 68 -197.5t166 -62.5q41 0 89 19.5t89 63.5t68.5 116t27.5 176v240 q-25 -29 -84 -49.5t-192 -47.5q-129 -25 -180.5 -86t-51.5 -172zM236 1247v211h41v-211h-41zM494 1247v211h41v-211h-41z" />
<glyph unicode="&#xe5;" horiz-adv-x="757" d="M59 276q0 129 68 195t184 88q53 10 112.5 23.5t102.5 29.5q45 14 63.5 51t18.5 128q0 70 -9 106.5t-32 67.5q-27 35 -74 57t-104 22q-92 0 -142 -32.5t-73.5 -77.5t-28 -92t-4.5 -78h-41v35q0 51 16.5 102t51.5 91t89 64.5t132 24.5q51 0 99.5 -15t83 -46t56 -79 t21.5 -114v-694q0 -59 17.5 -78.5t44.5 -17.5q8 0 19 1t22 3v-37q-20 -4 -29 -4h-21q-41 0 -67.5 24.5t-26.5 112.5v41h-4q-35 -92 -105.5 -147.5t-170.5 -55.5q-129 0 -199 80t-70 221zM100 272q0 -135 68 -197.5t166 -62.5q41 0 89 19.5t89 63.5t68.5 116t27.5 176v240 q-25 -29 -84 -49.5t-192 -47.5q-129 -25 -180.5 -86t-51.5 -172zM205 1384q0 72 51 123.5t123 51.5t123 -51.5t51 -123.5q0 -74 -51 -124t-123 -50q-74 0 -124 50t-50 124zM246 1384q0 -59 39 -98t94 -39t94 39t39 98t-39 98.5t-94 39.5t-94 -39.5t-39 -98.5z" />
<glyph unicode="&#xe6;" horiz-adv-x="1214" d="M59 274q0 51 15.5 106.5t44.5 86.5q41 43 115.5 69.5t209.5 55.5q47 10 75 20.5t41 27.5t17.5 45t4.5 73q0 57 -4.5 93t-11.5 60.5t-18 41t-26 34.5q-23 27 -64.5 42t-88.5 15q-66 0 -111 -22.5t-73.5 -59t-41 -86t-12.5 -100.5v-10h-41v12q0 147 75 225t206 78 q47 0 89 -13t73.5 -38.5t51 -61.5t21.5 -79h4q6 23 23.5 55.5t48.5 63t74 52t100 21.5q78 0 134.5 -35.5t93 -100t54 -155t17.5 -200.5v-39h-541v-141q0 -55 8.5 -124t33 -129.5t70.5 -102.5t124 -42q72 0 119 33t75.5 85t42 115.5t15.5 125.5h41q-2 -72 -17.5 -142.5 t-49.5 -127t-90 -91.5t-138 -35q-72 0 -119 29t-75.5 70t-42 86t-17.5 78h-4q-8 -53 -28.5 -101.5t-54.5 -84.5t-82 -56.5t-110 -20.5q-66 0 -113.5 25t-79.5 65.5t-47.5 95t-15.5 113.5zM100 274q0 -51 12.5 -98t38 -84t66.5 -58.5t96 -21.5q82 0 132.5 37t79 93.5 t38.5 122t10 122.5v221h-4q-10 -16 -55 -33.5t-149 -39.5q-78 -16 -126.5 -34t-86.5 -59q-23 -23 -37.5 -69t-14.5 -99zM614 588h500q0 76 -10 156.5t-38 147t-78 109.5t-132 43q-74 0 -122 -40.5t-81 -112.5q-23 -51 -31 -134t-8 -169z" />
<glyph unicode="&#xe7;" horiz-adv-x="757" d="M76 559q0 121 19.5 218t61.5 165t105.5 103.5t151.5 35.5q68 0 123 -26.5t94 -70.5t60.5 -101.5t21.5 -118.5h-41q-2 53 -19.5 103.5t-50.5 90t-80 63t-108 23.5q-63 0 -117.5 -24.5t-94.5 -83.5t-62.5 -158.5t-22.5 -249.5q0 -147 22.5 -246.5t62.5 -159t94 -85 t118 -25.5q74 0 125 34t81.5 84t45 108.5t16.5 105.5h41q-4 -78 -27.5 -145.5t-63.5 -116.5t-95.5 -78t-122.5 -29l-64 -92l4 -4q20 8 33.5 10t36.5 2q53 0 97 -29.5t44 -90.5q0 -25 -11 -51.5t-34.5 -49t-59.5 -38t-85 -15.5q-47 0 -95.5 11.5t-66.5 25.5l16 35 q23 -12 59 -23.5t83 -11.5q70 0 111.5 32.5t41.5 80.5q0 88 -108 88q-53 0 -79 -10.5t-44 -26.5l-17 20l99 139q-152 16 -221 144q-78 149 -78 438z" />
<glyph unicode="&#xe8;" horiz-adv-x="796" d="M76 559q0 121 19.5 218t61.5 165t105.5 103.5t151.5 35.5q92 0 152.5 -37.5t97 -100t52 -145.5t15.5 -173v-74h-614q0 -119 14 -217t48 -170t91.5 -112t143.5 -40q74 0 125 34t81.5 84t45 108.5t16.5 105.5h41q-4 -78 -27.5 -145.5t-63.5 -116.5t-95.5 -78t-122.5 -29 q-180 0 -259 145.5t-79 438.5zM117 588h573v71q0 61 -11 129t-42 124.5t-84 94t-139 37.5q-84 0 -140.5 -37.5t-90 -100t-49 -145.5t-17.5 -173zM248 1495h41l170 -285h-41z" />
<glyph unicode="&#xe9;" horiz-adv-x="796" d="M76 559q0 121 19.5 218t61.5 165t105.5 103.5t151.5 35.5q92 0 152.5 -37.5t97 -100t52 -145.5t15.5 -173v-74h-614q0 -119 14 -217t48 -170t91.5 -112t143.5 -40q74 0 125 34t81.5 84t45 108.5t16.5 105.5h41q-4 -78 -27.5 -145.5t-63.5 -116.5t-95.5 -78t-122.5 -29 q-180 0 -259 145.5t-79 438.5zM117 588h573v71q0 61 -11 129t-42 124.5t-84 94t-139 37.5q-84 0 -140.5 -37.5t-90 -100t-49 -145.5t-17.5 -173zM391 1210l170 285h41l-170 -285h-41z" />
<glyph unicode="&#xea;" horiz-adv-x="796" d="M76 559q0 121 19.5 218t61.5 165t105.5 103.5t151.5 35.5q92 0 152.5 -37.5t97 -100t52 -145.5t15.5 -173v-74h-614q0 -119 14 -217t48 -170t91.5 -112t143.5 -40q74 0 125 34t81.5 84t45 108.5t16.5 105.5h41q-4 -78 -27.5 -145.5t-63.5 -116.5t-95.5 -78t-122.5 -29 q-180 0 -259 145.5t-79 438.5zM117 588h573v71q0 61 -11 129t-42 124.5t-84 94t-139 37.5q-84 0 -140.5 -37.5t-90 -100t-49 -145.5t-17.5 -173zM205 1210l180 285h58l180 -285h-41l-168 256l-168 -256h-41z" />
<glyph unicode="&#xeb;" horiz-adv-x="796" d="M76 559q0 121 19.5 218t61.5 165t105.5 103.5t151.5 35.5q92 0 152.5 -37.5t97 -100t52 -145.5t15.5 -173v-74h-614q0 -119 14 -217t48 -170t91.5 -112t143.5 -40q74 0 125 34t81.5 84t45 108.5t16.5 105.5h41q-4 -78 -27.5 -145.5t-63.5 -116.5t-95.5 -78t-122.5 -29 q-180 0 -259 145.5t-79 438.5zM117 588h573v71q0 61 -11 129t-42 124.5t-84 94t-139 37.5q-84 0 -140.5 -37.5t-90 -100t-49 -145.5t-17.5 -173zM267 1247v211h41v-211h-41zM525 1247v211h41v-211h-41z" />
<glyph unicode="&#xec;" horiz-adv-x="266" d="M113 0v1057h41v-1057h-41zM-53 1495h41l170 -285h-41z" />
<glyph unicode="&#xed;" horiz-adv-x="266" d="M113 0v1057h41v-1057h-41zM108 1210l170 285h41l-170 -285h-41z" />
<glyph unicode="&#xee;" horiz-adv-x="266" d="M113 0v1057h41v-1057h-41zM-74 1210l180 285h58l180 -285h-41l-168 256l-168 -256h-41z" />
<glyph unicode="&#xef;" horiz-adv-x="266" d="M113 0v1057h41v-1057h-41zM-16 1247v211h41v-211h-41zM242 1247v211h41v-211h-41z" />
<glyph unicode="&#xf0;" d="M76 528q0 260 82 406.5t260 146.5q59 0 114.5 -18.5t108.5 -71.5l4 4q-35 104 -91 190.5t-132 157.5l-152 -100l-26 31l147 98q-33 31 -67.5 57.5t-71.5 49.5l39 26l70 -53l67 -55l143 96l29 -31l-141 -94q172 -172 235.5 -383t63.5 -457q0 -162 -26.5 -268t-73 -169.5 t-109 -89.5t-131.5 -26q-178 0 -260 146.5t-82 406.5zM117 528q0 -147 23.5 -246.5t64.5 -159t95 -85t118 -25.5q160 0 229.5 128t69.5 388q0 258 -65.5 387t-233.5 129q-63 0 -117.5 -25.5t-95.5 -85t-64.5 -159t-23.5 -246.5z" />
<glyph unicode="&#xf1;" horiz-adv-x="796" d="M104 0v1057h41v-191h5q6 35 27.5 73t57 69.5t83 52t102.5 20.5q76 0 128 -23.5t84 -66.5t46 -102.5t14 -128.5v-760h-41v756q0 88 -18.5 143t-50 88t-73.5 45t-89 12q-35 0 -82 -15t-90 -57t-73 -114t-30 -184v-674h-41zM164 1274q2 23 9 49.5t21.5 50t37 38.5t53.5 15 q35 0 61.5 -18t50 -39.5t46 -40t51.5 -18.5q41 0 59 33.5t24 87.5h41q-4 -23 -10 -50.5t-20.5 -51t-37 -40t-56.5 -16.5q-31 0 -61 18.5t-56 39.5l-50 40q-24 18 -44 19q-33 0 -50.5 -34t-27.5 -83h-41z" />
<glyph unicode="&#xf2;" d="M76 528q0 266 82 409.5t260 143.5q70 0 132 -25.5t108.5 -89t73 -170t26.5 -268.5t-26.5 -268t-73 -169.5t-109 -89.5t-131.5 -26q-178 0 -260 146.5t-82 406.5zM117 528q0 -147 23.5 -246.5t64.5 -159t95 -85t118 -25.5q160 0 229.5 128t69.5 388t-69.5 388t-229.5 128 q-63 0 -118.5 -24.5t-95.5 -85t-63.5 -160t-23.5 -246.5zM250 1495h41l170 -285h-41z" />
<glyph unicode="&#xf3;" d="M76 528q0 266 82 409.5t260 143.5q70 0 132 -25.5t108.5 -89t73 -170t26.5 -268.5t-26.5 -268t-73 -169.5t-109 -89.5t-131.5 -26q-178 0 -260 146.5t-82 406.5zM117 528q0 -147 23.5 -246.5t64.5 -159t95 -85t118 -25.5q160 0 229.5 128t69.5 388t-69.5 388t-229.5 128 q-63 0 -118.5 -24.5t-95.5 -85t-63.5 -160t-23.5 -246.5zM391 1210l170 285h41l-170 -285h-41z" />
<glyph unicode="&#xf4;" d="M76 528q0 266 82 409.5t260 143.5q70 0 132 -25.5t108.5 -89t73 -170t26.5 -268.5t-26.5 -268t-73 -169.5t-109 -89.5t-131.5 -26q-178 0 -260 146.5t-82 406.5zM117 528q0 -147 23.5 -246.5t64.5 -159t95 -85t118 -25.5q160 0 229.5 128t69.5 388t-69.5 388t-229.5 128 q-63 0 -118.5 -24.5t-95.5 -85t-63.5 -160t-23.5 -246.5zM207 1210l180 285h58l180 -285h-41l-168 256l-168 -256h-41z" />
<glyph unicode="&#xf5;" d="M76 528q0 266 82 409.5t260 143.5q70 0 132 -25.5t108.5 -89t73 -170t26.5 -268.5t-26.5 -268t-73 -169.5t-109 -89.5t-131.5 -26q-178 0 -260 146.5t-82 406.5zM117 528q0 -147 23.5 -246.5t64.5 -159t95 -85t118 -25.5q160 0 229.5 128t69.5 388t-69.5 388t-229.5 128 q-63 0 -118.5 -24.5t-95.5 -85t-63.5 -160t-23.5 -246.5zM187 1274q2 23 9 49.5t21.5 50t37 38.5t53.5 15q35 0 61.5 -18t50 -39.5t46 -40t51.5 -18.5q41 0 59 33.5t24 87.5h41q-4 -23 -10 -50.5t-20.5 -51t-37 -40t-56.5 -16.5q-31 0 -61 18.5t-56 39.5l-50 40 q-24 18 -44 19q-33 0 -50.5 -34t-27.5 -83h-41z" />
<glyph unicode="&#xf6;" d="M76 528q0 266 82 409.5t260 143.5q70 0 132 -25.5t108.5 -89t73 -170t26.5 -268.5t-26.5 -268t-73 -169.5t-109 -89.5t-131.5 -26q-178 0 -260 146.5t-82 406.5zM117 528q0 -147 23.5 -246.5t64.5 -159t95 -85t118 -25.5q160 0 229.5 128t69.5 388t-69.5 388t-229.5 128 q-63 0 -118.5 -24.5t-95.5 -85t-63.5 -160t-23.5 -246.5zM265 1247v211h41v-211h-41zM523 1247v211h41v-211h-41z" />
<glyph unicode="&#xf7;" horiz-adv-x="1228" d="M96 500v37h1037v-37h-1037zM539 76q0 31 22.5 53.5t52.5 22.5q31 0 53.5 -23t22.5 -53q0 -31 -22.5 -53.5t-53.5 -22.5t-53 22.5t-22 53.5zM539 961q0 31 22.5 53t52.5 22q31 0 53.5 -22.5t22.5 -52.5q0 -31 -22.5 -53.5t-53.5 -22.5t-53 22.5t-22 53.5z" />
<glyph unicode="&#xf8;" d="M76 528q0 260 82 406.5t260 146.5q51 0 97 -13t85 -42l53 133l35 -14l-59 -146q59 -57 94 -168.5t35 -302.5q0 -162 -26.5 -268t-73 -169.5t-109 -89.5t-131.5 -26q-109 0 -180 60l-56 -137l-32 14l59 145q-70 66 -101.5 185.5t-31.5 285.5zM117 528q0 -166 29.5 -270 t78.5 -160l361 891q-72 55 -168 55q-63 0 -117.5 -25.5t-95.5 -85t-64.5 -159t-23.5 -246.5zM252 72q35 -33 77 -46.5t89 -13.5q160 0 229.5 128t69.5 388q0 315 -103 435z" />
<glyph unicode="&#xf9;" horiz-adv-x="796" d="M104 297v760h41v-756q0 -88 18.5 -144.5t50.5 -88t74 -44t89 -12.5q33 0 80 15.5t90 57.5t73.5 113.5t30.5 184.5v674h41v-1057h-41v190h-4q-6 -35 -27.5 -72.5t-57.5 -69.5t-83 -52.5t-102 -20.5q-76 0 -128 24t-84 67t-46.5 101t-14.5 130zM236 1495h41l170 -285h-41z " />
<glyph unicode="&#xfa;" horiz-adv-x="796" d="M104 297v760h41v-756q0 -88 18.5 -144.5t50.5 -88t74 -44t89 -12.5q33 0 80 15.5t90 57.5t73.5 113.5t30.5 184.5v674h41v-1057h-41v190h-4q-6 -35 -27.5 -72.5t-57.5 -69.5t-83 -52.5t-102 -20.5q-76 0 -128 24t-84 67t-46.5 101t-14.5 130zM370 1210l170 285h41 l-170 -285h-41z" />
<glyph unicode="&#xfb;" horiz-adv-x="796" d="M104 297v760h41v-756q0 -88 18.5 -144.5t50.5 -88t74 -44t89 -12.5q33 0 80 15.5t90 57.5t73.5 113.5t30.5 184.5v674h41v-1057h-41v190h-4q-6 -35 -27.5 -72.5t-57.5 -69.5t-83 -52.5t-102 -20.5q-76 0 -128 24t-84 67t-46.5 101t-14.5 130zM188 1210l180 285h58 l180 -285h-41l-168 256l-168 -256h-41z" />
<glyph unicode="&#xfc;" horiz-adv-x="796" d="M104 297v760h41v-756q0 -88 18.5 -144.5t50.5 -88t74 -44t89 -12.5q33 0 80 15.5t90 57.5t73.5 113.5t30.5 184.5v674h41v-1057h-41v190h-4q-6 -35 -27.5 -72.5t-57.5 -69.5t-83 -52.5t-102 -20.5q-76 0 -128 24t-84 67t-46.5 101t-14.5 130zM248 1247v211h41v-211h-41z M506 1247v211h41v-211h-41z" />
<glyph unicode="&#xfd;" horiz-adv-x="645" d="M4 1057h41l285 -1004h4l268 1004h39l-299 -1100q-25 -94 -47.5 -155.5t-51 -97.5t-66.5 -50t-91 -14q-16 0 -30.5 1t-24.5 3v37q12 -2 28.5 -3.5t32.5 -1.5q70 0 115 39q23 23 51.5 94.5t54.5 182.5zM309 1210l170 285h41l-170 -285h-41z" />
<glyph unicode="&#xfe;" d="M104 -360v1822h41v-633h7q33 123 101.5 187.5t172.5 64.5q152 0 242 -135t90 -428q0 -117 -16.5 -216t-54.5 -172t-100.5 -114t-156.5 -41q-59 0 -104 19.5t-79 53.5t-57.5 76t-37.5 89h-7v-573h-41zM145 528q0 -266 78 -391t207 -125q84 0 139.5 39t88 106.5t46 159 t13.5 193.5q0 104 -12.5 200.5t-46 171t-91 118.5t-145.5 44q-123 0 -200 -126t-77 -390z" />
<glyph unicode="&#xff;" horiz-adv-x="645" d="M4 1057h41l285 -1004h4l268 1004h39l-299 -1100q-25 -94 -47.5 -155.5t-51 -97.5t-66.5 -50t-91 -14q-16 0 -30.5 1t-24.5 3v37q12 -2 28.5 -3.5t32.5 -1.5q70 0 115 39q23 23 51.5 94.5t54.5 182.5zM183 1247v211h41v-211h-41zM441 1247v211h41v-211h-41z" />
<glyph unicode="&#x131;" horiz-adv-x="266" d="M113 0v1057h41v-1057h-41z" />
<glyph unicode="&#x152;" horiz-adv-x="1554" d="M78 731q0 135 19.5 270.5t71.5 243t142 175t234 67.5q92 0 173 -35t118 -117h4v127h651v-37h-610v-643h567v-37h-567v-708h641v-37h-682v133h-4q-45 -86 -122 -122t-169 -36q-143 0 -233.5 68t-142.5 175.5t-71.5 242.5t-19.5 270zM119 731q0 -139 19.5 -269t67.5 -229.5 t131 -160t210 -60.5q82 0 137 27t90 72t50.5 102t15.5 117v788q0 74 -13.5 135.5t-47.5 105.5t-90 67.5t-142 23.5q-127 0 -210 -60.5t-131 -160t-67.5 -229.5t-19.5 -269z" />
<glyph unicode="&#x153;" horiz-adv-x="1366" d="M76 528q0 260 82 406.5t260 146.5q82 0 136 -34.5t87 -81.5t47 -96.5t19 -75.5h4q4 51 24.5 102t55 93t82 67.5t106.5 25.5q82 0 141.5 -35.5t97 -100t55 -155t17.5 -200.5v-39h-561v-107q0 -78 12.5 -155.5t42 -139t78.5 -99.5t123 -38q72 0 119 33t75.5 85t42 115.5 t15.5 125.5h41q-2 -72 -17.5 -142.5t-49 -127t-90 -91.5t-138.5 -35q-76 0 -127 33t-83 80t-46 97.5t-16 86.5h-4q-10 -61 -31 -115.5t-54.5 -94t-84 -63.5t-119.5 -24q-178 0 -260 146.5t-82 406.5zM117 528q0 -147 23.5 -246.5t64.5 -159t95 -85t118 -25.5q94 0 147 48.5 t81 128t35 182t7 211.5q0 94 -13 178t-44 147.5t-83 100t-130 36.5q-63 0 -117.5 -24.5t-95.5 -83.5t-64.5 -158.5t-23.5 -249.5zM729 588h520q0 76 -10 156.5t-39 147t-82 109.5t-139 43q-49 0 -94 -24.5t-80 -76.5t-55.5 -134t-20.5 -195v-26z" />
<glyph unicode="&#x178;" horiz-adv-x="872" d="M6 1462h43l387 -803l389 803h41l-409 -846v-616h-41v616zM287 1603v211h41v-211h-41zM545 1603v211h41v-211h-41z" />
<glyph unicode="&#x2c6;" horiz-adv-x="266" d="M-76 1210l180 285h58l180 -285h-41l-168 256l-168 -256h-41z" />
<glyph unicode="&#x2da;" horiz-adv-x="266" d="M-41 1384q0 72 51 123.5t123 51.5t123 -51.5t51 -123.5q0 -74 -51 -124t-123 -50q-74 0 -124 50t-50 124zM0 1384q0 -59 39 -98t94 -39t94 39t39 98t-39 98.5t-94 39.5t-94 -39.5t-39 -98.5z" />
<glyph unicode="&#x2dc;" horiz-adv-x="266" d="M-94 1274q2 23 9 49.5t21.5 50t37 38.5t53.5 15q35 0 61.5 -18t50 -39.5t46 -40t51.5 -18.5q41 0 59 33.5t24 87.5h41q-4 -23 -10 -50.5t-20.5 -51t-37 -40t-56.5 -16.5q-31 0 -61 18.5t-56 39.5l-50 40q-24 18 -44 19q-33 0 -50.5 -34t-27.5 -83h-41z" />
<glyph unicode="&#x2013;" horiz-adv-x="1024" d="M0 539v36h1024v-36h-1024z" />
<glyph unicode="&#x2014;" horiz-adv-x="2048" d="M0 539v36h2048v-36h-2048z" />
<glyph unicode="&#x2018;" horiz-adv-x="344" d="M150 1014v211q0 78 19 137t67 100v-63q-4 -6 -11.5 -15.5t-14.5 -30t-13.5 -52t-6.5 -80.5v-207h-40z" />
<glyph unicode="&#x2019;" horiz-adv-x="344" d="M109 1014v63q2 6 9 16.5t15 30t14.5 51t6.5 80.5v207h41v-211q0 -78 -19.5 -137t-66.5 -100z" />
<glyph unicode="&#x201a;" horiz-adv-x="344" d="M109 -184q2 6 9 16t15 29.5t14.5 51.5t6.5 81v207h41v-211q0 -78 -19.5 -137.5t-66.5 -100.5v64z" />
<glyph unicode="&#x201c;" horiz-adv-x="530" d="M131 1014v211q0 78 19.5 137t66.5 100v-63q-4 -6 -11 -15.5t-14.5 -30t-13.5 -52t-6 -80.5v-207h-41zM313 1014v211q0 78 19.5 137t66.5 100v-63q-4 -6 -11 -15.5t-14 -30t-13.5 -52t-6.5 -80.5v-207h-41z" />
<glyph unicode="&#x201d;" horiz-adv-x="530" d="M131 1014v63q2 6 9 16.5t15.5 30t14.5 51t6 80.5v207h41v-211q0 -78 -19.5 -137t-66.5 -100zM313 1014v63q2 6 9.5 16.5t15.5 30t14 51t6 80.5v207h41v-211q0 -78 -19.5 -137t-66.5 -100z" />
<glyph unicode="&#x201e;" horiz-adv-x="530" d="M131 -184q2 6 9 16t15.5 29.5t14.5 51.5t6 81v207h41v-211q0 -78 -19.5 -137.5t-66.5 -100.5v64zM313 -184q2 6 9.5 16t15.5 29.5t14 51.5t6 81v207h41v-211q0 -78 -19.5 -137.5t-66.5 -100.5v64z" />
<glyph unicode="&#x2022;" horiz-adv-x="1024" d="M147 731q0 76 29 142.5t78 115.5t115.5 78t142.5 29t142.5 -29t115.5 -78t78 -115.5t29 -142.5t-29 -142.5t-78 -115.5t-115.5 -77.5t-142.5 -28.5t-142.5 28.5t-115.5 77.5t-78 115.5t-29 142.5z" />
<glyph unicode="&#x2026;" horiz-adv-x="2048" d="M322 0v201h40v-201h-40zM1004 0v201h40v-201h-40zM1686 0v201h40v-201h-40z" />
<glyph unicode="&#x2039;" horiz-adv-x="454" d="M127 537v41l201 274v-59l-172 -236l172 -235v-60z" />
<glyph unicode="&#x203a;" horiz-adv-x="454" d="M127 262v55l172 240l-172 240v55h4l197 -274v-41l-197 -275h-4z" />
<glyph unicode="&#x20ac;" horiz-adv-x="983" d="M70 819l16 35h86q8 104 32.5 210.5t75 192.5t134.5 140.5t211 54.5q78 0 142 -24.5t126 -71.5l-21 -35q-55 47 -115.5 70.5t-133.5 23.5q-115 0 -191 -52t-122 -134t-67.5 -181.5t-27.5 -193.5h545l-15 -35h-532q-2 -18 -3 -35.5t-1 -35.5q0 -31 1 -62t1 -61h487l-16 -35 h-469q6 -94 25.5 -194.5t64.5 -184.5t120 -138.5t191 -54.5q94 0 161 39t126 111v-57q-117 -129 -287 -129q-125 0 -207.5 56t-133 144t-74 195.5t-29.5 212.5h-98l14 35h84q-2 27 -3 52t-1 54v43q0 10 1 22.5t3 22.5h-100z" />
<glyph unicode="&#x2122;" horiz-adv-x="2048" d="M178 1425v37h651v-37h-305v-807h-41v807h-305zM981 618v844h72l333 -790l336 790h70v-844h-41v807h-4l-342 -807h-39l-340 807h-4v-807h-41z" />
<glyph unicode="&#xe000;" horiz-adv-x="1055" d="M0 1055h1055v-1055h-1055v1055z" />
<glyph unicode="&#xfb01;" horiz-adv-x="645" d="M23 1020v37h137v188q0 45 8 92t37 76q12 12 24.5 21.5t28.5 15.5t40 9t58 3h21q16 0 22 -2v-37q-10 2 -26 2h-27q-80 0 -112.5 -37.5t-32.5 -138.5v-192h180v-37h-180v-1020h-41v1020h-137zM492 0v1057h40v-1057h-40zM492 1260v202h40v-202h-40z" />
<glyph unicode="&#xfb02;" horiz-adv-x="645" d="M23 1020v37h137v188q0 45 8 92t37 76q12 12 24.5 21.5t28.5 15.5t40 9t58 3h21q16 0 22 -2v-37q-10 2 -26 2h-27q-80 0 -112.5 -37.5t-32.5 -138.5v-192h180v-37h-180v-1020h-41v1020h-137zM492 0v1462h40v-1462h-40z" />
<glyph unicode="&#xfb03;" horiz-adv-x="1024" d="M871 0v1057h41v-1057h-41zM871 1262v200h41v-200h-41zM402 1020v37h137v188q0 45 8 92t37 76q12 12 24.5 21.5t28.5 15.5t40 9t58 3h21q14 0 20 -2v-37q-8 2 -24 2h-27q-80 0 -112.5 -37.5t-32.5 -138.5v-192h180v-37h-180v-1020h-41v1020h-137zM23 1020v37h137v188 q0 45 8 92t37 76q12 12 24.5 21.5t28.5 15.5t40 9t58 3h21q14 0 20 -2v-37q-8 2 -24 2h-27q-80 0 -112.5 -37.5t-32.5 -138.5v-192h180v-37h-180v-1020h-41v1020h-137z" />
<glyph unicode="&#xfb04;" horiz-adv-x="1024" d="M871 0v1462h41v-1462h-41zM402 1020v37h137v188q0 45 8 92t37 76q12 12 24.5 21.5t28.5 15.5t40 9t58 3h21q14 0 20 -2v-37q-8 2 -24 2h-27q-80 0 -112.5 -37.5t-32.5 -138.5v-192h180v-37h-180v-1020h-41v1020h-137zM23 1020v37h137v188q0 45 8 92t37 76 q12 12 24.5 21.5t28.5 15.5t40 9t58 3h21q14 0 20 -2v-37q-8 2 -24 2h-27q-80 0 -112.5 -37.5t-32.5 -138.5v-192h180v-37h-180v-1020h-41v1020h-137z" />
</font>
</defs>
</svg>
